<?xml version="1.0" standalone="no"?>
<!DOCTYPE svg PUBLIC "-//W3C//DTD SVG 1.1//EN" "http://www.w3.org/Graphics/SVG/1.1/DTD/svg11.dtd" >
<svg>
<metadata>
Created by FontForge 20120731 at Sat Jun 29 13:19:09 2019
 By www
 Copyright (c) 1987, 1991, 1993, 2002 Fundicion Tipografica Neufville S. A.
 This record material and the data recorded thereon is the property of
 Fundicion Tipografica Neufville S. A. and Adobe Systems Incorporated,
 or its licensors, and may not be reproduced, used, displayed, modified,
 disclosed or transferred in any manner without the express written
 approval of Fundicion Tipografica Neufville S. A. and Adobe Systems
 Incorporated. 
</metadata>
<defs>
<font id="FuturaStd-Medium" horiz-adv-x="578" >
  <font-face 
    font-family="Futura Std"
    font-weight="500"
    font-stretch="normal"
    units-per-em="1000"
    panose-1="2 11 5 2 2 2 4 2 3 3"
    ascent="825"
    descent="-175"
    x-height="468"
    cap-height="754"
    bbox="-163 -268 1113 995"
    underline-thickness="50"
    underline-position="-50"
    stemh="84"
    stemv="90"
    unicode-range="U+0020-FB02"
  />
<missing-glyph horiz-adv-x="500" 
d="M0 0v700h500v-700h-500zM250 395l170 255h-340zM280 350l170 -255v510zM80 50h340l-170 255zM50 605v-510l170 255z" />
    <glyph glyph-name="f_i" unicode="fi" horiz-adv-x="512" 
d="M430 468v-468h-90v468h90zM385 745c34 0 62 -28 62 -63c0 -34 -28 -61 -62 -61s-62 27 -62 61c0 35 28 63 62 63zM294 868v-91c-18 8 -41 19 -60 19c-64 0 -64 -81 -64 -127v-201h124v-84h-124v-384h-90v384h-41v84h41v228c0 102 35 184 151 184c22 0 43 -4 63 -12z" />
    <glyph glyph-name="f_l" unicode="fl" horiz-adv-x="497" 
d="M431 868v-868h-90v868h90zM294 868v-91c-18 8 -41 19 -60 19c-64 0 -64 -81 -64 -127v-201h124v-84h-124v-384h-90v384h-41v84h41v228c0 102 35 184 151 184c22 0 43 -4 63 -12z" />
    <glyph glyph-name=".notdef" horiz-adv-x="500" 
d="M0 0v700h500v-700h-500zM250 395l170 255h-340zM280 350l170 -255v510zM80 50h340l-170 255zM50 605v-510l170 255z" />
    <glyph glyph-name="space" unicode=" " horiz-adv-x="289" 
 />
    <glyph glyph-name="exclam" unicode="!" horiz-adv-x="321" 
d="M161 100c32 0 58 -27 58 -58c0 -32 -26 -58 -58 -58s-58 26 -58 58c0 31 26 58 58 58zM116 174v580h90v-580h-90z" />
    <glyph glyph-name="quotedbl" unicode="&#x22;" horiz-adv-x="439" 
d="M90 754h98l-18 -328h-62zM251 754h98l-18 -328h-62z" />
    <glyph glyph-name="numbersign" unicode="#" 
d="M217 718h77l-36 -194h124l35 194h79l-35 -194h92v-80h-107l-27 -154h101v-80h-117l-38 -210h-76l37 210h-123l-40 -210h-75l37 210h-100v80h115l27 154h-105v80h119zM245 444l-27 -154h123l27 154h-123z" />
    <glyph glyph-name="dollar" unicode="$" 
d="M333 349v-271c61 14 105 72 105 136c0 68 -50 106 -105 135zM283 770v90h50v-90c75 -7 135 -49 171 -116l-79 -45c-21 40 -49 61 -92 74v-235c101 -44 195 -107 195 -230c0 -108 -87 -219 -195 -234v-95h-50v95c-118 2 -215 95 -233 210l90 19c17 -85 55 -130 143 -141
v300l-36 18c-79 40 -144 85 -144 183c0 99 80 189 180 197zM283 472v211c-52 -8 -93 -50 -93 -103c0 -59 43 -88 93 -108z" />
    <glyph glyph-name="percent" unicode="%" horiz-adv-x="708" 
d="M193 710c-62 0 -116 -50 -116 -112c0 -61 54 -111 116 -111s116 50 116 111c0 62 -54 112 -116 112zM552 770l45 -26l-440 -760l-46 25zM516 267c-62 0 -116 -50 -116 -112c0 -61 54 -111 116 -111s116 50 116 111c0 62 -54 112 -116 112zM193 770c95 0 176 -76 176 -172
c0 -95 -82 -171 -176 -171s-176 76 -176 171c0 96 81 172 176 172zM516 327c95 0 176 -76 176 -172c0 -95 -82 -171 -176 -171s-176 76 -176 171c0 96 81 172 176 172z" />
    <glyph glyph-name="ampersand" unicode="&#x26;" horiz-adv-x="692" 
d="M287 372l-9 -6c-52 -36 -137 -87 -137 -159s68 -139 140 -139c70 0 126 53 173 100zM307 490l12 8c38 30 90 61 90 116c0 53 -38 82 -88 82c-45 0 -84 -32 -84 -80c0 -38 23 -66 45 -94zM592 0l-82 102c-57 -67 -137 -118 -226 -118c-126 0 -231 92 -231 222
c0 96 60 148 132 200l47 34c-43 45 -83 101 -83 165c0 104 75 165 174 165c92 0 174 -58 174 -157c0 -85 -74 -142 -137 -188l157 -190l88 102l60 -62l-92 -108l135 -167h-116z" />
    <glyph glyph-name="quoteright" unicode="&#x2019;" horiz-adv-x="277" 
d="M138 770l79 -31l-133 -267l-56 23z" />
    <glyph glyph-name="parenleft" unicode="(" horiz-adv-x="292" 
d="M161 809l74 -55c-63 -132 -86 -300 -86 -446s23 -314 86 -446l-74 -55c-74 145 -104 340 -104 501c0 162 30 357 104 501z" />
    <glyph glyph-name="parenright" unicode=")" horiz-adv-x="292" 
d="M57 754l74 55c74 -144 104 -339 104 -501c0 -161 -30 -356 -104 -501l-74 55c63 132 86 300 86 446s-23 314 -86 446z" />
    <glyph glyph-name="asterisk" unicode="*" horiz-adv-x="432" 
d="M184 754h69v-95l81 48l35 -59l-85 -50l85 -50l-35 -58l-81 50v-96h-69v97l-87 -49l-34 57l85 49l-84 50l31 57l89 -49v98z" />
    <glyph glyph-name="plus" unicode="+" 
d="M246 512h86v-213h213v-86h-213v-213h-86v213h-213v86h213v213z" />
    <glyph glyph-name="comma" unicode="," horiz-adv-x="289" 
d="M164 119l78 -31l-133 -267l-55 23z" />
    <glyph glyph-name="hyphen" unicode="-" horiz-adv-x="332" 
d="M57 358h219v-75h-219v75z" />
    <glyph glyph-name="period" unicode="." horiz-adv-x="289" 
d="M145 100c32 0 58 -27 58 -58c0 -32 -26 -58 -58 -58s-58 26 -58 58c0 31 26 58 58 58z" />
    <glyph glyph-name="slash" unicode="/" horiz-adv-x="551" 
d="M448 868l72 -32l-417 -962l-71 32z" />
    <glyph glyph-name="zero" unicode="0" 
d="M289 -16c-194 0 -263 239 -263 393c0 155 68 393 263 393s263 -238 263 -393c0 -154 -69 -393 -263 -393zM289 690c-135 0 -173 -208 -173 -312s38 -310 173 -310s173 206 173 310s-38 312 -173 312z" />
    <glyph glyph-name="one" unicode="1" 
d="M254 668h-131l52 86h169v-754h-90v668z" />
    <glyph glyph-name="two" unicode="2" 
d="M228 86h304v-86h-487l330 405c31 38 67 85 67 135c0 79 -70 144 -148 144c-77 0 -140 -62 -145 -138h-94c15 134 102 224 239 224c128 0 238 -95 238 -226c0 -56 -21 -112 -56 -155z" />
    <glyph glyph-name="three" unicode="3" 
d="M275 360v78c81 0 148 30 148 121c0 76 -56 129 -131 129c-68 0 -115 -43 -125 -108h-93c18 124 97 190 221 190c120 0 218 -77 218 -203c0 -74 -32 -134 -96 -170c74 -35 107 -106 107 -187c0 -141 -106 -226 -241 -226c-118 0 -224 78 -230 202h91
c9 -74 74 -120 146 -120c84 0 144 66 144 148c0 96 -66 153 -159 146z" />
    <glyph glyph-name="four" unicode="4" 
d="M469 192h86v-82h-86v-110h-90v110h-372l462 676v-594zM379 192v311h-2l-212 -311h214z" />
    <glyph glyph-name="five" unicode="5" 
d="M528 668h-237l-47 -155l53 3c146 0 242 -125 242 -264c0 -159 -124 -268 -279 -268c-93 0 -186 49 -230 132l70 66c23 -64 100 -112 167 -112c102 0 182 84 182 185c0 97 -83 179 -180 179c-53 0 -108 -25 -141 -67h-18l116 387h302v-86z" />
    <glyph glyph-name="six" unicode="6" 
d="M379 770l68 -46l-201 -272l2 -2c22 11 47 18 74 18c124 0 218 -115 218 -236c0 -138 -112 -248 -249 -248c-130 0 -251 108 -251 241c0 76 38 140 82 199zM290 68c84 0 160 70 160 154c0 94 -80 162 -160 162c-82 0 -160 -75 -160 -157c0 -87 74 -159 160 -159z" />
    <glyph glyph-name="seven" unicode="7" 
d="M437 668h-390v86h543l-470 -770l-73 45z" />
    <glyph glyph-name="eight" unicode="8" 
d="M289 352c-76 0 -146 -62 -146 -142c0 -76 72 -142 146 -142s146 66 146 142c0 80 -70 142 -146 142zM53 210c0 81 41 154 119 181c-62 35 -99 95 -99 169c0 123 96 210 216 210s216 -87 216 -210c0 -74 -37 -134 -99 -169c78 -27 119 -100 119 -181
c0 -140 -108 -226 -236 -226s-236 86 -236 226zM289 690c-68 0 -128 -58 -128 -130c0 -60 65 -128 128 -128s128 68 128 128c0 72 -60 130 -128 130z" />
    <glyph glyph-name="nine" unicode="9" 
d="M213 -16l-68 47l201 271l-2 2c-22 -11 -47 -14 -73 -14c-125 0 -219 112 -219 232c0 138 112 248 249 248c130 0 251 -108 251 -241c0 -75 -38 -140 -82 -199zM302 370c96 0 160 76 160 158c0 80 -72 158 -154 158c-90 0 -166 -72 -166 -158c0 -90 82 -158 160 -158z" />
    <glyph glyph-name="colon" unicode=":" horiz-adv-x="289" 
d="M145 100c32 0 58 -27 58 -58c0 -32 -26 -58 -58 -58s-58 26 -58 58c0 31 26 58 58 58zM145 482c32 0 58 -27 58 -58c0 -32 -26 -58 -58 -58s-58 26 -58 58c0 31 26 58 58 58z" />
    <glyph glyph-name="semicolon" unicode=";" horiz-adv-x="289" 
d="M156 119l78 -31l-133 -267l-55 23zM192 482c32 0 58 -27 58 -58c0 -32 -26 -58 -58 -58s-58 26 -58 58c0 31 26 58 58 58z" />
    <glyph glyph-name="less" unicode="&#x3c;" 
d="M545 498v-94l-384 -148l384 -148v-94l-512 207v70z" />
    <glyph glyph-name="equal" unicode="=" 
d="M33 385h512v-86h-512v86zM33 213h512v-86h-512v86z" />
    <glyph glyph-name="greater" unicode="&#x3e;" 
d="M33 404v94l512 -207v-70l-512 -207v94l384 148z" />
    <glyph glyph-name="question" unicode="?" horiz-adv-x="453" 
d="M301 345h91c4 -87 -77 -161 -162 -161c-89 0 -161 70 -161 160c0 95 63 124 126 147c62 23 125 39 125 105c0 55 -39 89 -92 89c-47 0 -86 -39 -86 -86c0 -11 3 -21 6 -32h-94l-2 33c-6 98 85 170 179 170c101 0 180 -76 180 -177c0 -46 -19 -94 -54 -124
c-33 -29 -82 -43 -124 -56c-36 -11 -73 -29 -73 -73c0 -40 30 -72 70 -72c43 0 72 35 71 77zM230 100c32 0 58 -27 58 -58c0 -32 -26 -58 -58 -58s-58 26 -58 58c0 31 26 58 58 58z" />
    <glyph glyph-name="at" unicode="@" horiz-adv-x="800" 
d="M503 372c10 81 -33 127 -102 127c-81 0 -132 -80 -132 -153c0 -59 38 -114 100 -114c89 0 125 68 134 140zM528 506l14 62h71l-50 -257c-7 -34 -20 -86 14 -86c46 0 108 93 108 192c0 168 -117 273 -270 273c-168 0 -299 -140 -299 -313c0 -183 145 -313 316 -313
c83 0 148 16 186 48l75 -60c-71 -38 -138 -68 -269 -68c-215 0 -388 166 -388 393c0 224 169 393 382 393c88 0 169 -27 235 -87c68 -59 112 -137 112 -230c0 -83 -22 -160 -62 -212c-48 -63 -106 -89 -154 -87c-28 1 -48 24 -54 62c-34 -34 -76 -62 -136 -62
c-88 0 -168 82 -168 185c0 121 80 238 204 238c51 0 93 -19 133 -71z" />
    <glyph glyph-name="A" unicode="A" horiz-adv-x="703" 
d="M525 189h-346l-86 -189h-101l360 786l360 -786h-101zM486 275l-134 305l-134 -305h268z" />
    <glyph glyph-name="B" unicode="B" horiz-adv-x="535" 
d="M158 670v-250h24c89 0 162 18 162 126c0 106 -72 124 -160 124h-26zM158 345v-261h72c87 0 178 26 178 133c0 106 -108 128 -192 128h-58zM64 0v754h92c142 0 276 -37 276 -207c0 -55 -30 -119 -81 -143v-2c89 -16 151 -103 151 -191c0 -151 -129 -211 -262 -211h-176z
" />
    <glyph glyph-name="C" unicode="C" horiz-adv-x="661" 
d="M621 719v-109c-54 48 -128 74 -199 74c-169 0 -298 -141 -298 -308c0 -165 128 -306 296 -306c74 0 145 28 201 78v-111c-58 -34 -132 -53 -198 -53c-215 0 -393 171 -393 389c0 223 179 397 401 397c66 0 133 -16 190 -51z" />
    <glyph glyph-name="D" unicode="D" horiz-adv-x="665" 
d="M64 0v754h156c231 0 423 -122 423 -373c0 -257 -188 -381 -426 -381h-153zM158 668v-582h33c192 0 358 72 358 291c0 220 -166 291 -358 291h-33z" />
    <glyph glyph-name="E" unicode="E" horiz-adv-x="521" 
d="M72 0v754h405v-86h-311v-211h302v-86h-302v-285h311v-86h-405z" />
    <glyph glyph-name="F" unicode="F" horiz-adv-x="474" 
d="M436 668h-271v-212h262v-86h-262v-370h-94v754h365v-86z" />
    <glyph glyph-name="G" unicode="G" horiz-adv-x="780" 
d="M460 380h299v-30c0 -207 -146 -366 -357 -366s-381 182 -381 391c0 217 174 395 391 395c117 0 233 -53 307 -146l-66 -63c-54 74 -145 123 -237 123c-169 0 -301 -137 -301 -306c0 -158 130 -308 293 -308c117 0 243 101 247 224h-195v86z" />
    <glyph glyph-name="H" unicode="H" horiz-adv-x="675" 
d="M158 450h359v304h94v-754h-94v362h-359v-362h-94v754h94v-304z" />
    <glyph glyph-name="I" unicode="I" horiz-adv-x="232" 
d="M163 754v-754h-94v754h94z" />
    <glyph glyph-name="J" unicode="J" horiz-adv-x="362" 
d="M209 754h94v-479c0 -145 -28 -291 -204 -291c-44 0 -81 11 -118 33l47 80c21 -16 48 -25 75 -25c108 0 106 126 106 203v479z" />
    <glyph glyph-name="K" unicode="K" horiz-adv-x="600" 
d="M166 427l320 327h123l-339 -339l345 -415h-127l-284 351l-38 -36v-315h-94v754h94v-327z" />
    <glyph glyph-name="L" unicode="L" horiz-adv-x="385" 
d="M166 754v-668h229v-86h-323v754h94z" />
    <glyph glyph-name="M" unicode="M" horiz-adv-x="851" 
d="M426 -16l-226 514h-2l-88 -498h-97l154 786l259 -594l259 594l154 -786h-97l-88 498h-2z" />
    <glyph glyph-name="N" unicode="N" horiz-adv-x="785" 
d="M63 0v790l566 -593v557h94v-785l-566 593v-562h-94z" />
    <glyph glyph-name="O" unicode="O" horiz-adv-x="828" 
d="M414 770c216 0 395 -177 395 -393c0 -224 -177 -393 -395 -393s-395 169 -395 393c0 216 179 393 395 393zM414 72c163 0 301 133 301 305c0 166 -124 305 -301 305s-301 -139 -301 -305c0 -172 138 -305 301 -305z" />
    <glyph glyph-name="P" unicode="P" horiz-adv-x="495" 
d="M166 316v-316h-94v754h108c232 0 304 -80 304 -218c0 -159 -121 -220 -264 -220h-54zM166 670v-270h30c96 0 200 18 200 138c0 118 -112 132 -205 132h-25z" />
    <glyph glyph-name="Q" unicode="Q" horiz-adv-x="828" 
d="M808 -16h-114l-65 67c-62 -43 -143 -67 -215 -67c-218 0 -395 169 -395 393c0 216 179 393 395 393s395 -177 395 -393c0 -107 -44 -208 -118 -278zM508 284l119 -118c58 52 88 139 88 211c0 166 -124 305 -301 305s-301 -139 -301 -305c0 -172 138 -305 301 -305
c46 0 104 14 150 43l-173 169h117z" />
    <glyph glyph-name="R" unicode="R" horiz-adv-x="543" 
d="M303 328l238 -328h-114l-222 319h-39v-319h-94v754h114c67 0 139 -1 199 -35c63 -37 99 -108 99 -180c0 -108 -72 -198 -181 -211zM166 670v-273h30c96 0 200 18 200 138c0 118 -112 135 -205 135h-25z" />
    <glyph glyph-name="S" unicode="S" horiz-adv-x="537" 
d="M482 656l-75 -45c-28 47 -64 71 -121 71c-60 0 -126 -41 -126 -107c0 -59 58 -90 105 -108l54 -21c107 -42 187 -101 187 -227c0 -137 -106 -235 -241 -235c-122 0 -217 90 -233 211l95 20c-1 -83 65 -143 146 -143s139 68 139 147c0 81 -65 116 -130 143l-52 22
c-86 37 -164 86 -164 191c0 122 108 195 222 195c84 0 153 -41 194 -114z" />
    <glyph glyph-name="T" unicode="T" horiz-adv-x="456" 
d="M275 668v-668h-94v668h-179v86h452v-86h-179z" />
    <glyph glyph-name="U" unicode="U" horiz-adv-x="669" 
d="M59 754h94v-445c0 -123 37 -237 182 -237s182 114 182 237v445h94v-477c0 -166 -103 -293 -276 -293s-276 127 -276 293v477z" />
    <glyph glyph-name="V" unicode="V" horiz-adv-x="640" 
d="M96 754l225 -558l224 558h103l-327 -794l-328 794h103z" />
    <glyph glyph-name="W" unicode="W" horiz-adv-x="1027" 
d="M90 754l211 -540l213 556l213 -556l211 540h102l-313 -784l-213 553l-213 -553l-313 784h102z" />
    <glyph glyph-name="X" unicode="X" horiz-adv-x="574" 
d="M237 395l-208 359h107l154 -275l164 275h107l-217 -359l229 -395h-105l-178 309l-185 -309h-105z" />
    <glyph glyph-name="Y" unicode="Y" horiz-adv-x="573" 
d="M240 328l-246 426h108l185 -322l185 322h108l-246 -426v-328h-94v328z" />
    <glyph glyph-name="Z" unicode="Z" horiz-adv-x="552" 
d="M162 86h382v-86h-535l382 668h-328v86h481z" />
    <glyph glyph-name="bracketleft" unicode="[" horiz-adv-x="311" 
d="M153 725v-834h98v-84h-190v1002h190v-84h-98z" />
    <glyph glyph-name="backslash" unicode="\" horiz-adv-x="551" 
d="M31 868h84l404 -868h-84z" />
    <glyph glyph-name="bracketright" unicode="]" horiz-adv-x="311" 
d="M158 -109v834h-98v84h190v-1002h-190v84h98z" />
    <glyph glyph-name="asciicircum" unicode="^" 
d="M33 308l200 446h112l200 -446h-94l-162 362l-163 -362h-93z" />
    <glyph glyph-name="underscore" unicode="_" horiz-adv-x="500" 
d="M500 -75v-50h-500v50h500z" />
    <glyph glyph-name="quoteleft" unicode="&#x2018;" horiz-adv-x="277" 
d="M139 472l-79 31l133 267l56 -23z" />
    <glyph glyph-name="a" unicode="a" horiz-adv-x="556" 
d="M264 64c98 0 152 78 152 170c0 91 -55 168 -152 168c-93 0 -148 -81 -148 -168c0 -88 53 -170 148 -170zM501 468v-468h-90v73h-2c-36 -53 -92 -89 -159 -89c-143 0 -224 119 -224 253c0 128 85 245 221 245c69 0 125 -36 162 -92h2v78h90z" />
    <glyph glyph-name="b" unicode="b" horiz-adv-x="556" 
d="M288 64c98 0 152 78 152 170c0 91 -55 168 -152 168c-93 0 -148 -81 -148 -168c0 -88 53 -170 148 -170zM55 0v868h90v-478h2c37 56 93 92 163 92c135 0 220 -117 220 -245c0 -134 -80 -253 -224 -253c-66 0 -123 36 -159 89h-2v-73h-90z" />
    <glyph glyph-name="c" unicode="c" horiz-adv-x="441" 
d="M406 451v-116c-36 41 -80 63 -134 63c-88 0 -156 -78 -156 -164c0 -96 67 -166 162 -166c52 0 94 24 128 62v-115c-41 -22 -82 -31 -129 -31c-138 0 -251 106 -251 246c0 145 112 252 256 252c42 0 88 -10 124 -31z" />
    <glyph glyph-name="d" unicode="d" horiz-adv-x="556" 
d="M264 64c98 0 152 78 152 170c0 91 -55 168 -152 168c-93 0 -148 -81 -148 -168c0 -88 53 -170 148 -170zM411 0v73h-2c-36 -53 -93 -89 -159 -89c-144 0 -224 119 -224 253c0 128 85 245 220 245c70 0 126 -36 163 -92h2v478h90v-868h-90z" />
    <glyph glyph-name="e" unicode="e" horiz-adv-x="488" 
d="M473 219h-357c1 -80 55 -155 141 -155c69 0 106 35 140 91l76 -43c-44 -81 -126 -128 -217 -128c-143 0 -230 108 -230 246c0 144 77 252 228 252c149 0 219 -110 219 -249v-14zM121 287h262c-11 70 -57 117 -129 117c-70 0 -122 -50 -133 -117z" />
    <glyph glyph-name="f" unicode="f" horiz-adv-x="275" 
d="M294 868v-91c-18 8 -41 19 -60 19c-64 0 -64 -81 -64 -127v-201h124v-84h-124v-384h-90v384h-41v84h41v228c0 102 35 184 151 184c22 0 43 -4 63 -12z" />
    <glyph glyph-name="g" unicode="g" horiz-adv-x="555" 
d="M263 64c98 0 152 78 152 170c0 91 -55 168 -152 168c-93 0 -148 -81 -148 -168c0 -88 53 -170 148 -170zM500 468v-459c0 -161 -46 -277 -228 -277c-130 0 -224 80 -226 212h90c0 -84 58 -132 140 -132c111 0 134 76 134 172v89h-2c-36 -53 -93 -89 -159 -89
c-144 0 -224 119 -224 253c0 128 85 245 220 245c70 0 126 -36 163 -94h2v80h90z" />
    <glyph glyph-name="h" unicode="h" horiz-adv-x="523" 
d="M62 868h90v-463h2c28 50 84 77 141 77c132 0 166 -89 166 -203v-279h-90v268c0 80 -11 134 -103 134c-116 0 -116 -102 -116 -187v-215h-90v868z" />
    <glyph glyph-name="i" unicode="i" horiz-adv-x="254" 
d="M172 468v-468h-90v468h90zM127 745c34 0 62 -28 62 -63c0 -34 -28 -61 -62 -61s-62 27 -62 61c0 35 28 63 62 63z" />
    <glyph glyph-name="j" unicode="j" horiz-adv-x="254" 
d="M172 468v-736h-90v736h90zM127 745c34 0 62 -28 62 -63c0 -34 -28 -61 -62 -61s-62 27 -62 61c0 35 28 63 62 63z" />
    <glyph glyph-name="k" unicode="k" horiz-adv-x="462" 
d="M158 868v-576l176 176h119l-200 -194l220 -274h-117l-167 213l-31 -31v-182h-90v868h90z" />
    <glyph glyph-name="l" unicode="l" horiz-adv-x="222" 
d="M156 868v-868h-90v868h90z" />
    <glyph glyph-name="m" unicode="m" horiz-adv-x="767" 
d="M149 468v-59h2c26 41 73 73 124 73c61 0 105 -31 135 -83c29 50 85 83 144 83c123 0 155 -96 155 -202v-280h-90v265c0 60 -8 137 -87 137c-96 0 -103 -100 -103 -172v-230h-90v248c0 61 -3 154 -86 154c-96 0 -104 -99 -104 -172v-230h-90v468h90z" />
    <glyph glyph-name="n" unicode="n" horiz-adv-x="523" 
d="M152 468v-63h2c28 50 84 77 141 77c132 0 166 -89 166 -203v-279h-90v268c0 80 -11 134 -103 134c-116 0 -116 -102 -116 -187v-215h-90v468h90z" />
    <glyph glyph-name="o" unicode="o" horiz-adv-x="540" 
d="M270 482c140 0 250 -108 250 -249s-110 -249 -250 -249s-250 108 -250 249s110 249 250 249zM270 396c-89 0 -160 -74 -160 -163c0 -88 71 -163 160 -163s160 75 160 163c0 89 -71 163 -160 163z" />
    <glyph glyph-name="p" unicode="p" horiz-adv-x="556" 
d="M288 64c98 0 152 78 152 170c0 91 -55 168 -152 168c-93 0 -148 -81 -148 -168c0 -88 53 -170 148 -170zM145 468v-78h2c37 56 93 92 163 92c135 0 220 -117 220 -245c0 -134 -80 -253 -224 -253c-66 0 -123 36 -159 89h-2v-341h-90v736h90z" />
    <glyph glyph-name="q" unicode="q" horiz-adv-x="556" 
d="M264 64c98 0 152 78 152 170c0 91 -55 168 -152 168c-93 0 -148 -81 -148 -168c0 -88 53 -170 148 -170zM501 468v-736h-90v341h-2c-36 -53 -93 -89 -159 -89c-144 0 -224 119 -224 253c0 128 85 245 220 245c70 0 126 -36 163 -92h2v78h90z" />
    <glyph glyph-name="r" unicode="r" horiz-adv-x="351" 
d="M158 468v-76h3c22 55 68 90 128 90c26 0 52 -9 74 -23l-41 -82c-16 14 -34 19 -55 19c-97 0 -109 -90 -109 -166v-230h-90v468h90z" />
    <glyph glyph-name="s" unicode="s" horiz-adv-x="384" 
d="M323 400l-73 -39c-11 23 -34 41 -60 41c-25 0 -49 -20 -49 -46c0 -41 54 -59 109 -84s108 -59 108 -133c0 -89 -74 -155 -161 -155c-68 0 -137 39 -162 105l77 35c19 -35 42 -60 85 -60c38 0 71 26 71 66c0 25 -12 37 -33 51l-88 47c-52 28 -90 54 -90 118
c0 76 62 136 138 136c57 0 103 -31 128 -82z" />
    <glyph glyph-name="t" unicode="t" horiz-adv-x="240" 
d="M165 384v-384h-90v384h-49v84h49v179h90v-179h88v-84h-88z" />
    <glyph glyph-name="u" unicode="u" horiz-adv-x="512" 
d="M58 468h90v-259c0 -75 19 -141 108 -141s108 66 108 141v259h90v-269c0 -128 -60 -215 -198 -215s-198 87 -198 215v269z" />
    <glyph glyph-name="v" unicode="v" horiz-adv-x="445" 
d="M88 468l134 -292l135 292h101l-236 -484l-235 484h101z" />
    <glyph glyph-name="w" unicode="w" horiz-adv-x="718" 
d="M86 468l136 -298l138 324l137 -324l136 298h102l-238 -484l-137 313l-138 -313l-238 484h102z" />
    <glyph glyph-name="x" unicode="x" horiz-adv-x="489" 
d="M195 254l-168 214h106l111 -151l121 151h109l-172 -214l201 -254h-105l-154 190l-149 -190h-109z" />
    <glyph glyph-name="y" unicode="y" horiz-adv-x="484" 
d="M201 80l-214 388h105l158 -297l147 297h101l-379 -736h-102z" />
    <glyph glyph-name="z" unicode="z" horiz-adv-x="495" 
d="M177 84h304v-84h-479l317 384h-263v84h438z" />
    <glyph glyph-name="braceleft" unicode="{" horiz-adv-x="334" 
d="M48 271v73c50 22 75 76 75 151v182c0 80 55 132 85 132h78v-84h-40c-31 0 -31 -29 -31 -62v-184c0 -115 -63 -163 -76 -172c13 -8 76 -56 76 -171v-184c0 -33 0 -62 31 -62h40v-84h-78c-30 0 -85 52 -85 132v182c0 75 -25 129 -75 151z" />
    <glyph glyph-name="bar" unicode="|" horiz-adv-x="570" 
d="M328 786v-1000h-86v1000h86z" />
    <glyph glyph-name="braceright" unicode="}" horiz-adv-x="334" 
d="M286 344v-73c-50 -22 -75 -76 -75 -151v-182c0 -80 -55 -132 -85 -132h-78v84h40c31 0 31 29 31 62v184c0 115 63 163 76 171c-13 9 -76 57 -76 172v184c0 33 0 62 -31 62h-40v84h78c30 0 85 -52 85 -132v-182c0 -75 25 -129 75 -151z" />
    <glyph glyph-name="asciitilde" unicode="~" 
d="M478 334l67 -50c-30 -55 -80 -122 -152 -122c-37 0 -78 26 -115 51s-69 51 -90 51c-34 0 -60 -30 -92 -82l-63 45c36 52 81 123 153 123c49 0 89 -26 122 -51s60 -51 84 -51c38 0 56 36 86 86z" />
    <glyph glyph-name="exclamdown" unicode="&#xa1;" horiz-adv-x="321" 
d="M161 508c32 0 58 -27 58 -58c0 -32 -26 -58 -58 -58s-58 26 -58 58c0 31 26 58 58 58zM116 323h90v-581h-90v581z" />
    <glyph glyph-name="cent" unicode="&#xa2;" 
d="M356 704v-76c42 -2 85 -10 122 -31v-115h-2c-28 37 -72 62 -120 63v-328c50 7 87 25 122 62v-117c-34 -16 -68 -25 -105 -28l-17 -1v-85h-48v89c-121 19 -208 117 -208 240c0 124 84 230 208 249v78h48zM308 220v319c-71 -9 -120 -93 -120 -158c0 -72 46 -146 120 -161z
" />
    <glyph glyph-name="sterling" unicode="&#xa3;" 
d="M90 -16l-79 40c36 63 76 110 154 113c17 57 23 111 -8 164h-129v58h100c-28 53 -58 121 -58 180c0 130 122 231 247 231c141 0 233 -95 240 -234l-90 -34v28c0 82 -61 152 -146 152c-83 0 -161 -78 -161 -151c0 -69 44 -122 71 -172h148v-58h-124c19 -62 18 -110 0 -172
l74 -26c28 -10 63 -29 94 -29c41 0 65 42 83 74l75 -46c-28 -66 -80 -118 -156 -118c-43 0 -88 16 -131 33c-42 17 -82 32 -116 32c-46 0 -72 -25 -88 -65z" />
    <glyph glyph-name="fraction" unicode="&#x2044;" horiz-adv-x="165" 
d="M277 770l51 -26l-440 -760l-51 28z" />
    <glyph glyph-name="yen" unicode="&#xa5;" 
d="M336 260v-260h-94v260h-236v58h236v10l-54 94h-182v58h148l-158 274h108l185 -322l185 322h108l-158 -274h148v-58h-181l-55 -94v-10h236v-58h-236z" />
    <glyph glyph-name="florin" unicode="&#x192;" 
d="M355 505h129l-9 -68h-131l-55 -303c-29 -162 -58 -283 -251 -283h-24l15 86h19c116 0 130 92 147 192l53 308h-65l9 68h70l21 124c20 118 62 207 197 207c21 0 41 -2 60 -7l-16 -84c-13 5 -27 7 -41 7c-81 0 -93 -67 -106 -134z" />
    <glyph glyph-name="section" unicode="&#xa7;" 
d="M214 335l175 -87c35 22 60 64 60 105c0 48 -38 69 -76 88l-184 93c-36 -23 -60 -64 -60 -106c0 -51 45 -73 85 -93zM310 192l-141 69c-72 36 -129 66 -129 157c0 73 40 120 96 162c-28 32 -44 68 -44 111c0 102 93 177 191 177c102 0 192 -61 199 -168h-87
c-3 58 -59 89 -112 89c-56 0 -101 -44 -101 -100c0 -53 42 -80 85 -101l133 -67c62 -31 138 -70 138 -149c0 -66 -36 -130 -89 -169c34 -32 53 -75 53 -122c0 -119 -101 -193 -213 -193c-129 0 -226 81 -226 215v15h89c-2 -81 52 -148 136 -148c63 0 124 46 124 113
c0 59 -56 86 -102 109z" />
    <glyph glyph-name="currency" unicode="&#xa4;" 
d="M483 546l60 -60l-41 -44c26 -41 42 -85 42 -142s-16 -101 -42 -142l41 -44l-60 -60l-46 44c-38 -29 -84 -48 -148 -48s-110 19 -148 48l-46 -44l-60 60l41 44c-26 41 -42 85 -42 142s16 101 42 142l-41 44l60 60l46 -44c38 29 84 48 148 48s110 -19 148 -48zM289 130
c97 0 174 77 175 170c1 99 -75 170 -175 170s-177 -71 -175 -170c2 -93 78 -170 175 -170z" />
    <glyph glyph-name="quotesingle" unicode="'" horiz-adv-x="277" 
d="M90 754h98l-18 -328h-62z" />
    <glyph glyph-name="quotedblleft" unicode="&#x201c;" horiz-adv-x="439" 
d="M305 472l-79 31l133 267l56 -23zM139 472l-79 31l133 267l56 -23z" />
    <glyph glyph-name="guillemotleft" unicode="&#xab;" horiz-adv-x="523" 
d="M311 320l149 -191l-56 -41l-182 232l182 240l56 -41zM119 320l149 -191l-56 -41l-182 232l182 240l56 -41z" />
    <glyph glyph-name="guilsinglleft" unicode="&#x2039;" horiz-adv-x="336" 
d="M111 320l149 -191l-56 -41l-182 232l182 240l56 -41z" />
    <glyph glyph-name="guilsinglright" unicode="&#x203a;" horiz-adv-x="336" 
d="M76 129l149 191l-149 199l56 41l182 -240l-182 -232z" />
    <glyph glyph-name="fi" unicode="&#xfb01;" horiz-adv-x="512" 
d="M430 468v-468h-90v468h90zM385 745c34 0 62 -28 62 -63c0 -34 -28 -61 -62 -61s-62 27 -62 61c0 35 28 63 62 63zM294 868v-91c-18 8 -41 19 -60 19c-64 0 -64 -81 -64 -127v-201h124v-84h-124v-384h-90v384h-41v84h41v228c0 102 35 184 151 184c22 0 43 -4 63 -12z" />
    <glyph glyph-name="fl" unicode="&#xfb02;" horiz-adv-x="497" 
d="M431 868v-868h-90v868h90zM294 868v-91c-18 8 -41 19 -60 19c-64 0 -64 -81 -64 -127v-201h124v-84h-124v-384h-90v384h-41v84h41v228c0 102 35 184 151 184c22 0 43 -4 63 -12z" />
    <glyph glyph-name="endash" unicode="&#x2013;" horiz-adv-x="500" 
d="M0 358h500v-75h-500v75z" />
    <glyph glyph-name="dagger" unicode="&#x2020;" 
d="M244 868h90v-275h181v-86h-181v-595h-90v595h-181v86h181v275z" />
    <glyph glyph-name="daggerdbl" unicode="&#x2021;" 
d="M244 868h90v-239h181v-86h-181v-122h181v-86h-181v-422h-90v422h-181v86h181v122h-181v86h181v239z" />
    <glyph glyph-name="periodcentered" unicode="&#xb7;" horiz-adv-x="289" 
d="M145 314c32 0 58 -27 58 -58c0 -32 -26 -58 -58 -58s-58 26 -58 58c0 31 26 58 58 58z" />
    <glyph glyph-name="paragraph" unicode="&#xb6;" 
d="M538 754v-84h-61v-823h-84v823h-62v-823h-84v436c-113 0 -196 79 -206 214c-9 121 83 257 215 257h282z" />
    <glyph glyph-name="bullet" unicode="&#x2022;" 
d="M289 189c-103 0 -188 83 -188 188c-1 105 83 189 188 189s189 -84 189 -189s-86 -188 -189 -188z" />
    <glyph glyph-name="quotesinglbase" unicode="&#x201a;" horiz-adv-x="277" 
d="M164 119l78 -31l-133 -267l-55 23z" />
    <glyph glyph-name="quotedblbase" unicode="&#x201e;" horiz-adv-x="439" 
d="M160 119l78 -31l-133 -267l-55 23zM326 119l78 -31l-133 -267l-55 23z" />
    <glyph glyph-name="quotedblright" unicode="&#x201d;" horiz-adv-x="439" 
d="M134 770l79 -31l-133 -267l-56 23zM300 770l79 -31l-133 -267l-56 23z" />
    <glyph glyph-name="guillemotright" unicode="&#xbb;" horiz-adv-x="523" 
d="M63 129l149 191l-149 199l56 41l182 -240l-182 -232zM255 129l149 191l-149 199l56 41l182 -240l-182 -232z" />
    <glyph glyph-name="ellipsis" unicode="&#x2026;" horiz-adv-x="1000" 
d="M500 100c32 0 58 -27 58 -58c0 -32 -26 -58 -58 -58s-58 26 -58 58c0 31 26 58 58 58zM834 100c32 0 58 -27 58 -58c0 -32 -26 -58 -58 -58s-58 26 -58 58c0 31 26 58 58 58zM166 100c32 0 58 -27 58 -58c0 -32 -26 -58 -58 -58s-58 26 -58 58c0 31 26 58 58 58z" />
    <glyph glyph-name="perthousand" unicode="&#x2030;" horiz-adv-x="1110" 
d="M198 710c-62 0 -116 -50 -116 -112c0 -61 54 -111 116 -111s116 50 116 111c0 62 -54 112 -116 112zM557 770l45 -26l-440 -760l-46 25zM521 267c-62 0 -116 -50 -116 -112c0 -61 54 -111 116 -111s116 50 116 111c0 62 -54 112 -116 112zM198 770c95 0 176 -76 176 -172
c0 -95 -82 -171 -176 -171s-176 76 -176 171c0 96 81 172 176 172zM521 327c95 0 176 -76 176 -172c0 -95 -82 -171 -176 -171s-176 76 -176 171c0 96 81 172 176 172zM913 327c95 0 176 -76 176 -172c0 -95 -82 -171 -176 -171s-176 76 -176 171c0 96 81 172 176 172z
M913 267c-62 0 -116 -50 -116 -112c0 -61 54 -111 116 -111s116 50 116 111c0 62 -54 112 -116 112z" />
    <glyph glyph-name="questiondown" unicode="&#xbf;" horiz-adv-x="453" 
d="M152 157h-91c-4 87 77 161 162 161c89 0 161 -70 161 -160c0 -95 -63 -124 -126 -147c-62 -23 -125 -39 -125 -105c0 -55 39 -89 92 -89c47 0 86 39 86 86c0 11 -3 21 -6 32h94l2 -33c6 -98 -85 -170 -179 -170c-101 0 -180 76 -180 177c0 46 19 94 54 124
c33 29 82 43 124 56c36 11 73 29 73 73c0 40 -30 72 -70 72c-43 0 -72 -35 -71 -77zM223 508c32 0 58 -27 58 -58c0 -32 -26 -58 -58 -58s-58 26 -58 58c0 31 26 58 58 58z" />
    <glyph glyph-name="grave" unicode="`" horiz-adv-x="360" 
d="M76 690l83 44l125 -166l-44 -27z" />
    <glyph glyph-name="acute" unicode="&#xb4;" horiz-adv-x="360" 
d="M201 734l83 -44l-164 -149l-44 27z" />
    <glyph glyph-name="circumflex" unicode="&#x2c6;" horiz-adv-x="470" 
d="M75 589l159 145l161 -145l-59 -46l-102 96l-101 -96z" />
    <glyph glyph-name="tilde" unicode="&#x2dc;" horiz-adv-x="510" 
d="M111 573l-47 40l3 5c27 39 55 76 108 76c34 0 63 -12 89 -26s50 -27 72 -27c29 0 50 25 64 48l47 -39c-23 -47 -63 -82 -118 -82c-28 0 -56 13 -83 26c-26 12 -52 25 -78 25c-25 0 -47 -25 -57 -46z" />
    <glyph glyph-name="macron" unicode="&#xaf;" horiz-adv-x="500" 
d="M70 694h361v-68h-361v68z" />
    <glyph glyph-name="breve" unicode="&#x2d8;" horiz-adv-x="490" 
d="M71 694h72c20 -47 49 -75 102 -75c54 0 82 28 103 75h71c-15 -83 -90 -141 -174 -141c-83 0 -158 58 -174 141z" />
    <glyph glyph-name="dotaccent" unicode="&#x2d9;" horiz-adv-x="360" 
d="M181 694c33 0 60 -27 60 -60c0 -34 -27 -61 -60 -61c-34 0 -61 27 -61 61c0 33 27 60 61 60z" />
    <glyph glyph-name="dieresis" unicode="&#xa8;" horiz-adv-x="470" 
d="M130 694c33 0 60 -27 60 -60c0 -34 -27 -61 -60 -61c-34 0 -61 27 -61 61c0 33 27 60 61 60zM341 694c33 0 60 -27 60 -60c0 -34 -27 -61 -60 -61c-34 0 -61 27 -61 61c0 33 27 60 61 60z" />
    <glyph glyph-name="ring" unicode="&#x2da;" horiz-adv-x="360" 
d="M180 734c51 0 91 -41 91 -91s-40 -90 -91 -90c-50 0 -90 40 -90 90s40 91 90 91zM180 598c25 0 46 20 46 45s-21 46 -46 46c-24 0 -45 -21 -45 -46s21 -45 45 -45z" />
    <glyph glyph-name="cedilla" unicode="&#xb8;" horiz-adv-x="330" 
d="M244 -46l-105 -135l-53 27l87 137z" />
    <glyph glyph-name="hungarumlaut" unicode="&#x2dd;" horiz-adv-x="470" 
d="M349 725l83 -44l-164 -149l-44 27zM163 734l83 -44l-164 -149l-44 27z" />
    <glyph glyph-name="ogonek" unicode="&#x2db;" horiz-adv-x="340" 
d="M165 -16h46v-2c-27 -18 -61 -49 -61 -85c0 -34 26 -47 56 -47c18 0 35 3 50 13l-7 -58c-19 -12 -42 -17 -64 -17c-49 0 -101 28 -101 82c0 51 41 90 81 114z" />
    <glyph glyph-name="caron" unicode="&#x2c7;" horiz-adv-x="472" 
d="M76 688l58 46l101 -96l102 96l59 -46l-161 -145z" />
    <glyph glyph-name="emdash" unicode="&#x2014;" horiz-adv-x="1000" 
d="M130 358h740v-75h-740v75z" />
    <glyph glyph-name="AE" unicode="&#xc6;" horiz-adv-x="997" 
d="M532 189h-343l-86 -189h-103l362 754h330l38 -86h-309l91 -211h301l40 -86h-302l121 -285h311l38 -86h-406zM497 275l-130 292l-138 -292h268z" />
    <glyph glyph-name="ordfeminine" unicode="&#xaa;" horiz-adv-x="334" 
d="M167 519c64 0 99 47 99 102s-36 101 -99 101c-60 0 -96 -49 -96 -101c0 -53 34 -102 96 -102zM322 761v-280h-59v43h-2c-23 -31 -59 -53 -103 -53c-93 0 -146 71 -146 152c0 77 56 147 144 147c45 0 81 -22 106 -55h1v46h59z" />
    <glyph glyph-name="Lslash" unicode="&#x141;" horiz-adv-x="385" 
d="M166 754v-288l118 83v-90l-118 -79v-294h229v-86h-323v322l-81 -58v91l81 54v345h94z" />
    <glyph glyph-name="Oslash" unicode="&#xd8;" horiz-adv-x="828" 
d="M659 557l-428 -422c50 -39 114 -63 183 -63c163 0 301 133 301 305c0 67 -20 130 -56 180zM178 189l430 423c-50 44 -117 70 -194 70c-177 0 -301 -139 -301 -305c0 -72 24 -137 65 -188zM7 21l104 102c-58 68 -92 156 -92 254c0 216 179 393 395 393
c98 0 189 -37 257 -96l96 95l54 -53l-98 -96c54 -68 86 -152 86 -243c0 -224 -177 -393 -395 -393c-94 0 -181 32 -249 86l-104 -102z" />
    <glyph glyph-name="OE" unicode="&#x152;" horiz-adv-x="1143" 
d="M718 0v126h-2c-68 -92 -181 -143 -302 -142c-218 0 -395 169 -395 393c0 216 179 393 395 393c115 -4 235 -53 302 -148h2v132h395v-86h-310v-211h301v-86h-301v-285h310v-86h-395zM414 72c163 0 301 133 301 305c0 166 -124 305 -301 305s-301 -139 -301 -305
c0 -172 138 -305 301 -305z" />
    <glyph glyph-name="ordmasculine" unicode="&#xba;" horiz-adv-x="324" 
d="M162 770c91 0 163 -65 163 -150c0 -84 -72 -149 -163 -149s-162 65 -162 149c0 85 71 150 162 150zM162 718c-58 0 -103 -44 -103 -98c0 -52 45 -97 103 -97s104 45 104 97c0 54 -46 98 -104 98z" />
    <glyph glyph-name="ae" unicode="&#xe6;" horiz-adv-x="807" 
d="M442 287h262c-11 70 -57 117 -129 117c-70 0 -122 -50 -133 -117zM221 218c-47 0 -111 -24 -111 -79c0 -56 68 -75 114 -75c47 0 116 21 116 78s-74 76 -119 76zM792 219h-357c1 -80 55 -155 141 -155c69 0 106 35 140 91l76 -43c-44 -81 -126 -128 -217 -128
c-72 0 -135 35 -180 87c-39 -59 -111 -87 -179 -87c-92 0 -190 48 -190 153c0 102 82 157 177 157c50 0 103 -11 142 -43v32c0 82 -41 121 -123 121c-43 0 -87 -2 -128 -15v80c46 9 94 13 141 13c58 0 130 -23 160 -77c41 51 106 77 178 77c149 0 219 -110 219 -249v-14z
" />
    <glyph glyph-name="dotlessi" unicode="&#x131;" horiz-adv-x="254" 
d="M172 468v-468h-90v468h90z" />
    <glyph glyph-name="lslash" unicode="&#x142;" horiz-adv-x="255" 
d="M82 0v412l-81 -55v81l81 55v375h90v-314l82 56v-82l-82 -55v-473h-90z" />
    <glyph glyph-name="oslash" unicode="&#xf8;" horiz-adv-x="540" 
d="M139 141l223 225c-25 18 -57 30 -92 30c-89 0 -160 -74 -160 -163c0 -34 11 -66 29 -92zM405 319l-221 -223c25 -17 54 -26 86 -26c89 0 160 75 160 163c0 32 -9 62 -25 86zM8 9l67 67c-34 41 -55 96 -55 157c0 141 110 249 250 249c59 0 112 -19 155 -52l61 61l46 -43
l-62 -63c31 -41 50 -94 50 -152c0 -141 -110 -249 -250 -249c-57 0 -109 18 -149 48l-69 -70z" />
    <glyph glyph-name="oe" unicode="&#x153;" horiz-adv-x="897" 
d="M529 287h262c-11 70 -57 117 -129 117c-70 0 -122 -50 -133 -117zM270 396c-89 0 -160 -74 -160 -163c0 -88 71 -163 160 -163s160 75 160 163c0 89 -71 163 -160 163zM882 219h-357c1 -80 55 -155 141 -155c69 0 106 35 140 91l76 -43c-44 -81 -126 -128 -217 -128
c-78 -1 -156 37 -195 103c-45 -67 -123 -104 -200 -103c-140 0 -250 108 -250 249s110 249 250 249c75 -3 156 -40 200 -105c43 68 106 102 193 105c149 0 219 -110 219 -249v-14z" />
    <glyph glyph-name="germandbls" unicode="&#xdf;" horiz-adv-x="580" 
d="M282 -16v84c104 0 195 86 195 190c0 116 -86 178 -195 185v88c77 -1 135 61 135 138c0 74 -59 127 -130 127c-132 0 -129 -141 -129 -237v-559h-90v386h-40v84h40v148c0 152 56 262 222 262c123 0 217 -90 217 -216c0 -73 -33 -130 -96 -167c99 -32 156 -138 156 -239
c0 -157 -131 -281 -285 -274z" />
    <glyph glyph-name="onesuperior" unicode="&#xb9;" horiz-adv-x="346" 
d="M151 696h-86l34 58h116v-452h-64v394z" />
    <glyph glyph-name="logicalnot" unicode="&#xac;" 
d="M459 115v184h-426v86h512v-270h-86z" />
    <glyph glyph-name="mu" unicode="&#xb5;" horiz-adv-x="512" 
d="M58 468h90v-259c0 -75 19 -141 108 -141s108 66 108 141v259h90v-269c0 -128 -60 -215 -198 -215c-40 0 -82 22 -108 44v-296h-90v736z" />
    <glyph glyph-name="trademark" unicode="&#x2122;" horiz-adv-x="940" 
d="M906 754v-421h-64v357h-2l-144 -357h-39l-140 357h-2v-357h-64v421h105l121 -297l125 297h104zM374 754v-64h-138v-357h-64v357h-138v64h340z" />
    <glyph glyph-name="Eth" unicode="&#xd0;" horiz-adv-x="665" 
d="M64 442v312h156c231 0 423 -122 423 -373c0 -257 -188 -381 -426 -381h-153v362h-64v80h64zM158 668v-226h134v-80h-134v-276h33c192 0 358 72 358 291c0 220 -166 291 -358 291h-33z" />
    <glyph glyph-name="onehalf" unicode="&#xbd;" horiz-adv-x="867" 
d="M126 302v394h-86l34 58h116v-452h-64zM639 58h188v-58h-317l215 243c20 23 38 51 38 81c0 47 -50 80 -91 80c-49 0 -85 -31 -88 -76h-67c9 80 66 134 155 134c83 0 155 -57 155 -136c0 -33 -12 -69 -33 -93zM579 770l51 -26l-440 -760l-51 28z" />
    <glyph glyph-name="plusminus" unicode="&#xb1;" 
d="M33 0v86h512v-86h-512zM246 562h86v-173h213v-86h-213v-173h-86v173h-213v86h213v173z" />
    <glyph glyph-name="Thorn" unicode="&#xde;" horiz-adv-x="495" 
d="M166 176v-176h-94v754h94v-140h14c232 0 304 -80 304 -218c0 -159 -121 -220 -264 -220h-54zM166 530v-270h30c96 0 200 18 200 138c0 118 -112 132 -205 132h-25z" />
    <glyph glyph-name="onequarter" unicode="&#xbc;" horiz-adv-x="867" 
d="M778 124h49v-58h-49v-66h-64v66h-243l307 407v-349zM714 124v164h-3l-123 -164h126zM126 696h-86l34 58h116v-452h-64v394zM631 770l51 -26l-440 -760l-51 28z" />
    <glyph glyph-name="divide" unicode="&#xf7;" 
d="M33 213v86h512v-86h-512zM289 124c34 0 62 -28 62 -63c0 -34 -28 -61 -62 -61s-62 27 -62 61c0 35 28 63 62 63zM289 512c34 0 62 -28 62 -63c0 -34 -28 -61 -62 -61s-62 27 -62 61c0 35 28 63 62 63z" />
    <glyph glyph-name="brokenbar" unicode="&#xa6;" horiz-adv-x="570" 
d="M328 161v-250h-86v250h86zM328 661v-250h-86v250h86z" />
    <glyph glyph-name="degree" unicode="&#xb0;" horiz-adv-x="400" 
d="M350 620c0 -83 -68 -150 -150 -150c-83 0 -150 67 -150 150c-1 82 67 150 150 150c82 0 150 -68 150 -150zM199 720c-56 0 -100 -44 -99 -100c0 -57 43 -100 100 -100c56 0 100 43 100 100c0 56 -44 100 -101 100z" />
    <glyph glyph-name="thorn" unicode="&#xfe;" horiz-adv-x="556" 
d="M145 868v-478h2c37 56 93 92 163 92c135 0 220 -117 220 -245c0 -134 -80 -253 -224 -253c-66 0 -123 36 -159 89h-2v-341h-90v1136h90zM288 64c98 0 152 78 152 170c0 91 -55 168 -152 168c-93 0 -148 -81 -148 -168c0 -88 53 -170 148 -170z" />
    <glyph glyph-name="threequarters" unicode="&#xbe;" horiz-adv-x="867" 
d="M778 124h49v-58h-49v-66h-64v66h-243l307 407v-349zM714 124v164h-3l-123 -164h126zM184 518v58c56 0 94 22 94 67c0 46 -42 69 -83 69c-39 0 -75 -17 -75 -56h-67c12 74 63 114 144 114c78 0 145 -46 145 -122c0 -44 -24 -80 -66 -102c48 -21 73 -63 73 -112
c0 -85 -72 -136 -160 -136c-76 0 -145 47 -149 122h64c7 -45 40 -64 90 -64c48 0 91 31 91 80c0 52 -45 84 -101 82zM687 770l51 -26l-440 -760l-51 28z" />
    <glyph glyph-name="twosuperior" unicode="&#xb2;" horiz-adv-x="346" 
d="M144 360h188v-58h-317l215 243c20 23 38 51 38 81c0 47 -50 80 -91 80c-49 0 -85 -31 -88 -76h-67c9 80 66 134 155 134c83 0 155 -57 155 -136c0 -33 -12 -69 -33 -93z" />
    <glyph glyph-name="registered" unicode="&#xae;" horiz-adv-x="800" 
d="M400 -16c-220 0 -394 174 -394 393s174 393 394 393s394 -174 394 -393s-174 -393 -394 -393zM400 706c-180 0 -330 -143 -330 -329c0 -185 150 -329 330 -329s330 144 330 329c0 186 -150 329 -330 329zM468 357l112 -204h-73l-113 204h-82v-204h-64v442h186
c80 0 152 -24 152 -117c0 -87 -59 -119 -118 -121zM422 531h-110v-110h68c60 0 142 -10 142 50c0 56 -47 60 -100 60z" />
    <glyph glyph-name="minus" unicode="&#x2212;" 
d="M33 213v86h512v-86h-512z" />
    <glyph glyph-name="eth" unicode="&#xf0;" horiz-adv-x="540" 
d="M270 396c-89 0 -160 -74 -160 -163c0 -88 71 -163 160 -163s160 75 160 163c0 89 -71 163 -160 163zM46 638l145 83c-36 40 -73 75 -111 105l57 51c42 -29 85 -67 129 -113l145 83l42 -55l-141 -81c113 -133 208 -308 208 -459c0 -170 -110 -268 -250 -268
s-250 108 -250 249s110 249 250 249c55 0 84 -21 106 -34c-40 82 -87 155 -139 220l-147 -84z" />
    <glyph glyph-name="multiply" unicode="&#xd7;" 
d="M33 451l60 61l196 -195l196 195l60 -61l-195 -195l195 -195l-60 -61l-196 195l-196 -195l-60 61l195 195z" />
    <glyph glyph-name="threesuperior" unicode="&#xb3;" horiz-adv-x="346" 
d="M163 518v58c56 0 94 22 94 67c0 46 -42 69 -83 69c-39 0 -75 -17 -75 -56h-67c12 74 63 114 144 114c78 0 145 -46 145 -122c0 -44 -24 -80 -66 -102c48 -21 73 -63 73 -112c0 -85 -72 -136 -160 -136c-76 0 -145 47 -149 122h64c7 -45 40 -64 90 -64c48 0 91 31 91 80
c0 52 -45 84 -101 82z" />
    <glyph glyph-name="copyright" unicode="&#xa9;" horiz-adv-x="800" 
d="M400 -16c-220 0 -394 174 -394 393s174 393 394 393s394 -174 394 -393s-174 -393 -394 -393zM400 706c-180 0 -330 -143 -330 -329c0 -185 150 -329 330 -329s330 144 330 329c0 186 -150 329 -330 329zM600 458h-61c-12 55 -59 85 -125 85c-108 0 -153 -82 -153 -161
c0 -93 55 -164 155 -164c66 0 109 31 123 89h61c-12 -95 -93 -153 -184 -153c-133 0 -219 101 -219 226c0 130 82 227 218 227c93 0 167 -56 185 -149z" />
    <glyph glyph-name="Aacute" unicode="&#xc1;" horiz-adv-x="703" 
d="M525 189h-346l-86 -189h-101l360 786l360 -786h-101zM486 275l-134 305l-134 -305h268zM413 995l83 -44l-164 -149l-44 27z" />
    <glyph glyph-name="Acircumflex" unicode="&#xc2;" horiz-adv-x="703" 
d="M525 189h-346l-86 -189h-101l360 786l360 -786h-101zM486 275l-134 305l-134 -305h268zM192 850l159 145l161 -145l-59 -46l-102 96l-101 -96z" />
    <glyph glyph-name="Adieresis" unicode="&#xc4;" horiz-adv-x="703" 
d="M525 189h-346l-86 -189h-101l360 786l360 -786h-101zM486 275l-134 305l-134 -305h268zM247 955c33 0 60 -27 60 -60c0 -34 -27 -61 -60 -61c-34 0 -61 27 -61 61c0 33 27 60 61 60zM458 955c33 0 60 -27 60 -60c0 -34 -27 -61 -60 -61c-34 0 -61 27 -61 61
c0 33 27 60 61 60z" />
    <glyph glyph-name="Agrave" unicode="&#xc0;" horiz-adv-x="703" 
d="M525 189h-346l-86 -189h-101l360 786l360 -786h-101zM486 275l-134 305l-134 -305h268zM208 951l83 44l125 -166l-44 -27z" />
    <glyph glyph-name="Aring" unicode="&#xc5;" horiz-adv-x="703" 
d="M525 189h-346l-86 -189h-101l360 786l360 -786h-101zM486 275l-134 305l-134 -305h268zM352 985c51 0 91 -41 91 -91s-40 -90 -91 -90c-50 0 -90 40 -90 90s40 91 90 91zM352 849c25 0 46 20 46 45s-21 46 -46 46c-24 0 -45 -21 -45 -46s21 -45 45 -45z" />
    <glyph glyph-name="Atilde" unicode="&#xc3;" horiz-adv-x="703" 
d="M525 189h-346l-86 -189h-101l360 786l360 -786h-101zM486 275l-134 305l-134 -305h268zM208 834l-47 40l3 5c27 39 55 76 108 76c34 0 63 -12 89 -26s50 -27 72 -27c29 0 50 25 64 48l47 -39c-23 -47 -63 -82 -118 -82c-28 0 -56 13 -83 26c-26 12 -52 25 -78 25
c-25 0 -47 -25 -57 -46z" />
    <glyph glyph-name="Ccedilla" unicode="&#xc7;" horiz-adv-x="661" 
d="M621 719v-109c-54 48 -128 74 -199 74c-169 0 -298 -141 -298 -308c0 -165 128 -306 296 -306c74 0 145 28 201 78v-111c-58 -34 -132 -53 -198 -53c-215 0 -393 171 -393 389c0 223 179 397 401 397c66 0 133 -16 190 -51zM410 -46l-105 -135l-53 27l87 137z" />
    <glyph glyph-name="Eacute" unicode="&#xc9;" horiz-adv-x="521" 
d="M72 0v754h405v-86h-311v-211h302v-86h-302v-285h311v-86h-405zM322 995l83 -44l-164 -149l-44 27z" />
    <glyph glyph-name="Ecircumflex" unicode="&#xca;" horiz-adv-x="521" 
d="M72 0v754h405v-86h-311v-211h302v-86h-302v-285h311v-86h-405zM113 850l159 145l161 -145l-59 -46l-102 96l-101 -96z" />
    <glyph glyph-name="Edieresis" unicode="&#xcb;" horiz-adv-x="521" 
d="M72 0v754h405v-86h-311v-211h302v-86h-302v-285h311v-86h-405zM168 955c33 0 60 -27 60 -60c0 -34 -27 -61 -60 -61c-34 0 -61 27 -61 61c0 33 27 60 61 60zM379 955c33 0 60 -27 60 -60c0 -34 -27 -61 -60 -61c-34 0 -61 27 -61 61c0 33 27 60 61 60z" />
    <glyph glyph-name="Egrave" unicode="&#xc8;" horiz-adv-x="521" 
d="M72 0v754h405v-86h-311v-211h302v-86h-302v-285h311v-86h-405zM137 951l83 44l125 -166l-44 -27z" />
    <glyph glyph-name="Iacute" unicode="&#xcd;" horiz-adv-x="232" 
d="M163 754v-754h-94v754h94zM167 995l83 -44l-164 -149l-44 27z" />
    <glyph glyph-name="Icircumflex" unicode="&#xce;" horiz-adv-x="232" 
d="M163 754v-754h-94v754h94zM-44 850l159 145l161 -145l-59 -46l-102 96l-101 -96z" />
    <glyph glyph-name="Idieresis" unicode="&#xcf;" horiz-adv-x="232" 
d="M163 754v-754h-94v754h94zM11 955c33 0 60 -27 60 -60c0 -34 -27 -61 -60 -61c-34 0 -61 27 -61 61c0 33 27 60 61 60zM222 955c33 0 60 -27 60 -60c0 -34 -27 -61 -60 -61c-34 0 -61 27 -61 61c0 33 27 60 61 60z" />
    <glyph glyph-name="Igrave" unicode="&#xcc;" horiz-adv-x="232" 
d="M163 754v-754h-94v754h94zM-18 951l83 44l125 -166l-44 -27z" />
    <glyph glyph-name="Ntilde" unicode="&#xd1;" horiz-adv-x="785" 
d="M63 0v790l566 -593v557h94v-785l-566 593v-562h-94zM249 834l-47 40l3 5c27 39 55 76 108 76c34 0 63 -12 89 -26s50 -27 72 -27c29 0 50 25 64 48l47 -39c-23 -47 -63 -82 -118 -82c-28 0 -56 13 -83 26c-26 12 -52 25 -78 25c-25 0 -47 -25 -57 -46z" />
    <glyph glyph-name="Oacute" unicode="&#xd3;" horiz-adv-x="828" 
d="M414 770c216 0 395 -177 395 -393c0 -224 -177 -393 -395 -393s-395 169 -395 393c0 216 179 393 395 393zM414 72c163 0 301 133 301 305c0 166 -124 305 -301 305s-301 -139 -301 -305c0 -172 138 -305 301 -305zM465 995l83 -44l-164 -149l-44 27z" />
    <glyph glyph-name="Ocircumflex" unicode="&#xd4;" horiz-adv-x="828" 
d="M414 770c216 0 395 -177 395 -393c0 -224 -177 -393 -395 -393s-395 169 -395 393c0 216 179 393 395 393zM414 72c163 0 301 133 301 305c0 166 -124 305 -301 305s-301 -139 -301 -305c0 -172 138 -305 301 -305zM254 850l159 145l161 -145l-59 -46l-102 96l-101 -96z
" />
    <glyph glyph-name="Odieresis" unicode="&#xd6;" horiz-adv-x="828" 
d="M414 770c216 0 395 -177 395 -393c0 -224 -177 -393 -395 -393s-395 169 -395 393c0 216 179 393 395 393zM414 72c163 0 301 133 301 305c0 166 -124 305 -301 305s-301 -139 -301 -305c0 -172 138 -305 301 -305zM309 955c33 0 60 -27 60 -60c0 -34 -27 -61 -60 -61
c-34 0 -61 27 -61 61c0 33 27 60 61 60zM520 955c33 0 60 -27 60 -60c0 -34 -27 -61 -60 -61c-34 0 -61 27 -61 61c0 33 27 60 61 60z" />
    <glyph glyph-name="Ograve" unicode="&#xd2;" horiz-adv-x="828" 
d="M414 770c216 0 395 -177 395 -393c0 -224 -177 -393 -395 -393s-395 169 -395 393c0 216 179 393 395 393zM414 72c163 0 301 133 301 305c0 166 -124 305 -301 305s-301 -139 -301 -305c0 -172 138 -305 301 -305zM280 951l83 44l125 -166l-44 -27z" />
    <glyph glyph-name="Otilde" unicode="&#xd5;" horiz-adv-x="828" 
d="M414 770c216 0 395 -177 395 -393c0 -224 -177 -393 -395 -393s-395 169 -395 393c0 216 179 393 395 393zM414 72c163 0 301 133 301 305c0 166 -124 305 -301 305s-301 -139 -301 -305c0 -172 138 -305 301 -305zM270 834l-47 40l3 5c27 39 55 76 108 76
c34 0 63 -12 89 -26s50 -27 72 -27c29 0 50 25 64 48l47 -39c-23 -47 -63 -82 -118 -82c-28 0 -56 13 -83 26c-26 12 -52 25 -78 25c-25 0 -47 -25 -57 -46z" />
    <glyph glyph-name="Scaron" unicode="&#x160;" horiz-adv-x="537" 
d="M482 656l-75 -45c-28 47 -64 71 -121 71c-60 0 -126 -41 -126 -107c0 -59 58 -90 105 -108l54 -21c107 -42 187 -101 187 -227c0 -137 -106 -235 -241 -235c-122 0 -217 90 -233 211l95 20c-1 -83 65 -143 146 -143s139 68 139 147c0 81 -65 116 -130 143l-52 22
c-86 37 -164 86 -164 191c0 122 108 195 222 195c84 0 153 -41 194 -114zM119 949l58 46l101 -96l102 96l59 -46l-161 -145z" />
    <glyph glyph-name="Uacute" unicode="&#xda;" horiz-adv-x="669" 
d="M59 754h94v-445c0 -123 37 -237 182 -237s182 114 182 237v445h94v-477c0 -166 -103 -293 -276 -293s-276 127 -276 293v477zM386 995l83 -44l-164 -149l-44 27z" />
    <glyph glyph-name="Ucircumflex" unicode="&#xdb;" horiz-adv-x="669" 
d="M59 754h94v-445c0 -123 37 -237 182 -237s182 114 182 237v445h94v-477c0 -166 -103 -293 -276 -293s-276 127 -276 293v477zM175 850l159 145l161 -145l-59 -46l-102 96l-101 -96z" />
    <glyph glyph-name="Udieresis" unicode="&#xdc;" horiz-adv-x="669" 
d="M59 754h94v-445c0 -123 37 -237 182 -237s182 114 182 237v445h94v-477c0 -166 -103 -293 -276 -293s-276 127 -276 293v477zM230 955c33 0 60 -27 60 -60c0 -34 -27 -61 -60 -61c-34 0 -61 27 -61 61c0 33 27 60 61 60zM441 955c33 0 60 -27 60 -60
c0 -34 -27 -61 -60 -61c-34 0 -61 27 -61 61c0 33 27 60 61 60z" />
    <glyph glyph-name="Ugrave" unicode="&#xd9;" horiz-adv-x="669" 
d="M59 754h94v-445c0 -123 37 -237 182 -237s182 114 182 237v445h94v-477c0 -166 -103 -293 -276 -293s-276 127 -276 293v477zM201 951l83 44l125 -166l-44 -27z" />
    <glyph glyph-name="Yacute" unicode="&#xdd;" horiz-adv-x="573" 
d="M240 328l-246 426h108l185 -322l185 322h108l-246 -426v-328h-94v328zM368 995l83 -44l-164 -149l-44 27z" />
    <glyph glyph-name="Ydieresis" unicode="&#x178;" horiz-adv-x="573" 
d="M240 328l-246 426h108l185 -322l185 322h108l-246 -426v-328h-94v328zM194 955c33 0 60 -27 60 -60c0 -34 -27 -61 -60 -61c-34 0 -61 27 -61 61c0 33 27 60 61 60zM405 955c33 0 60 -27 60 -60c0 -34 -27 -61 -60 -61c-34 0 -61 27 -61 61c0 33 27 60 61 60z" />
    <glyph glyph-name="Zcaron" unicode="&#x17d;" horiz-adv-x="552" 
d="M162 86h382v-86h-535l382 668h-328v86h481zM131 949l58 46l101 -96l102 96l59 -46l-161 -145z" />
    <glyph glyph-name="aacute" unicode="&#xe1;" horiz-adv-x="556" 
d="M264 64c98 0 152 78 152 170c0 91 -55 168 -152 168c-93 0 -148 -81 -148 -168c0 -88 53 -170 148 -170zM501 468v-468h-90v73h-2c-36 -53 -92 -89 -159 -89c-143 0 -224 119 -224 253c0 128 85 245 221 245c69 0 125 -36 162 -92h2v78h90zM339 734l83 -44l-164 -149
l-44 27z" />
    <glyph glyph-name="acircumflex" unicode="&#xe2;" horiz-adv-x="556" 
d="M264 64c98 0 152 78 152 170c0 91 -55 168 -152 168c-93 0 -148 -81 -148 -168c0 -88 53 -170 148 -170zM501 468v-468h-90v73h-2c-36 -53 -92 -89 -159 -89c-143 0 -224 119 -224 253c0 128 85 245 221 245c69 0 125 -36 162 -92h2v78h90zM118 589l159 145l161 -145
l-59 -46l-102 96l-101 -96z" />
    <glyph glyph-name="adieresis" unicode="&#xe4;" horiz-adv-x="556" 
d="M264 64c98 0 152 78 152 170c0 91 -55 168 -152 168c-93 0 -148 -81 -148 -168c0 -88 53 -170 148 -170zM501 468v-468h-90v73h-2c-36 -53 -92 -89 -159 -89c-143 0 -224 119 -224 253c0 128 85 245 221 245c69 0 125 -36 162 -92h2v78h90zM173 694c33 0 60 -27 60 -60
c0 -34 -27 -61 -60 -61c-34 0 -61 27 -61 61c0 33 27 60 61 60zM384 694c33 0 60 -27 60 -60c0 -34 -27 -61 -60 -61c-34 0 -61 27 -61 61c0 33 27 60 61 60z" />
    <glyph glyph-name="agrave" unicode="&#xe0;" horiz-adv-x="556" 
d="M264 64c98 0 152 78 152 170c0 91 -55 168 -152 168c-93 0 -148 -81 -148 -168c0 -88 53 -170 148 -170zM501 468v-468h-90v73h-2c-36 -53 -92 -89 -159 -89c-143 0 -224 119 -224 253c0 128 85 245 221 245c69 0 125 -36 162 -92h2v78h90zM159 690l83 44l125 -166
l-44 -27z" />
    <glyph glyph-name="aring" unicode="&#xe5;" horiz-adv-x="556" 
d="M264 64c98 0 152 78 152 170c0 91 -55 168 -152 168c-93 0 -148 -81 -148 -168c0 -88 53 -170 148 -170zM501 468v-468h-90v73h-2c-36 -53 -92 -89 -159 -89c-143 0 -224 119 -224 253c0 128 85 245 221 245c69 0 125 -36 162 -92h2v78h90zM278 734c51 0 91 -41 91 -91
s-40 -90 -91 -90c-50 0 -90 40 -90 90s40 91 90 91zM278 598c25 0 46 20 46 45s-21 46 -46 46c-24 0 -45 -21 -45 -46s21 -45 45 -45z" />
    <glyph glyph-name="atilde" unicode="&#xe3;" horiz-adv-x="556" 
d="M264 64c98 0 152 78 152 170c0 91 -55 168 -152 168c-93 0 -148 -81 -148 -168c0 -88 53 -170 148 -170zM501 468v-468h-90v73h-2c-36 -53 -92 -89 -159 -89c-143 0 -224 119 -224 253c0 128 85 245 221 245c69 0 125 -36 162 -92h2v78h90zM134 573l-47 40l3 5
c27 39 55 76 108 76c34 0 63 -12 89 -26s50 -27 72 -27c29 0 50 25 64 48l47 -39c-23 -47 -63 -82 -118 -82c-28 0 -56 13 -83 26c-26 12 -52 25 -78 25c-25 0 -47 -25 -57 -46z" />
    <glyph glyph-name="ccedilla" unicode="&#xe7;" horiz-adv-x="441" 
d="M406 451v-116c-36 41 -80 63 -134 63c-88 0 -156 -78 -156 -164c0 -96 67 -166 162 -166c52 0 94 24 128 62v-115c-41 -22 -82 -31 -129 -31c-138 0 -251 106 -251 246c0 145 112 252 256 252c42 0 88 -10 124 -31zM300 -46l-105 -135l-53 27l87 137z" />
    <glyph glyph-name="eacute" unicode="&#xe9;" horiz-adv-x="488" 
d="M473 219h-357c1 -80 55 -155 141 -155c69 0 106 35 140 91l76 -43c-44 -81 -126 -128 -217 -128c-143 0 -230 108 -230 246c0 144 77 252 228 252c149 0 219 -110 219 -249v-14zM121 287h262c-11 70 -57 117 -129 117c-70 0 -122 -50 -133 -117zM305 734l83 -44
l-164 -149l-44 27z" />
    <glyph glyph-name="ecircumflex" unicode="&#xea;" horiz-adv-x="488" 
d="M473 219h-357c1 -80 55 -155 141 -155c69 0 106 35 140 91l76 -43c-44 -81 -126 -128 -217 -128c-143 0 -230 108 -230 246c0 144 77 252 228 252c149 0 219 -110 219 -249v-14zM121 287h262c-11 70 -57 117 -129 117c-70 0 -122 -50 -133 -117zM84 589l159 145l161 -145
l-59 -46l-102 96l-101 -96z" />
    <glyph glyph-name="edieresis" unicode="&#xeb;" horiz-adv-x="488" 
d="M473 219h-357c1 -80 55 -155 141 -155c69 0 106 35 140 91l76 -43c-44 -81 -126 -128 -217 -128c-143 0 -230 108 -230 246c0 144 77 252 228 252c149 0 219 -110 219 -249v-14zM121 287h262c-11 70 -57 117 -129 117c-70 0 -122 -50 -133 -117zM139 694
c33 0 60 -27 60 -60c0 -34 -27 -61 -60 -61c-34 0 -61 27 -61 61c0 33 27 60 61 60zM350 694c33 0 60 -27 60 -60c0 -34 -27 -61 -60 -61c-34 0 -61 27 -61 61c0 33 27 60 61 60z" />
    <glyph glyph-name="egrave" unicode="&#xe8;" horiz-adv-x="488" 
d="M473 219h-357c1 -80 55 -155 141 -155c69 0 106 35 140 91l76 -43c-44 -81 -126 -128 -217 -128c-143 0 -230 108 -230 246c0 144 77 252 228 252c149 0 219 -110 219 -249v-14zM121 287h262c-11 70 -57 117 -129 117c-70 0 -122 -50 -133 -117zM125 690l83 44l125 -166
l-44 -27z" />
    <glyph glyph-name="iacute" unicode="&#xed;" horiz-adv-x="254" 
d="M172 468v-468h-90v468h90zM178 734l83 -44l-164 -149l-44 27z" />
    <glyph glyph-name="icircumflex" unicode="&#xee;" horiz-adv-x="254" 
d="M172 468v-468h-90v468h90zM-33 589l159 145l161 -145l-59 -46l-102 96l-101 -96z" />
    <glyph glyph-name="idieresis" unicode="&#xef;" horiz-adv-x="254" 
d="M172 468v-468h-90v468h90zM22 694c33 0 60 -27 60 -60c0 -34 -27 -61 -60 -61c-34 0 -61 27 -61 61c0 33 27 60 61 60zM233 694c33 0 60 -27 60 -60c0 -34 -27 -61 -60 -61c-34 0 -61 27 -61 61c0 33 27 60 61 60z" />
    <glyph glyph-name="igrave" unicode="&#xec;" horiz-adv-x="254" 
d="M172 468v-468h-90v468h90zM-7 690l83 44l125 -166l-44 -27z" />
    <glyph glyph-name="ntilde" unicode="&#xf1;" horiz-adv-x="523" 
d="M152 468v-63h2c28 50 84 77 141 77c132 0 166 -89 166 -203v-279h-90v268c0 80 -11 134 -103 134c-116 0 -116 -102 -116 -187v-215h-90v468h90zM118 573l-47 40l3 5c27 39 55 76 108 76c34 0 63 -12 89 -26s50 -27 72 -27c29 0 50 25 64 48l47 -39
c-23 -47 -63 -82 -118 -82c-28 0 -56 13 -83 26c-26 12 -52 25 -78 25c-25 0 -47 -25 -57 -46z" />
    <glyph glyph-name="oacute" unicode="&#xf3;" horiz-adv-x="540" 
d="M270 482c140 0 250 -108 250 -249s-110 -249 -250 -249s-250 108 -250 249s110 249 250 249zM270 396c-89 0 -160 -74 -160 -163c0 -88 71 -163 160 -163s160 75 160 163c0 89 -71 163 -160 163zM331 734l83 -44l-164 -149l-44 27z" />
    <glyph glyph-name="ocircumflex" unicode="&#xf4;" horiz-adv-x="540" 
d="M270 482c140 0 250 -108 250 -249s-110 -249 -250 -249s-250 108 -250 249s110 249 250 249zM270 396c-89 0 -160 -74 -160 -163c0 -88 71 -163 160 -163s160 75 160 163c0 89 -71 163 -160 163zM110 589l159 145l161 -145l-59 -46l-102 96l-101 -96z" />
    <glyph glyph-name="odieresis" unicode="&#xf6;" horiz-adv-x="540" 
d="M270 482c140 0 250 -108 250 -249s-110 -249 -250 -249s-250 108 -250 249s110 249 250 249zM270 396c-89 0 -160 -74 -160 -163c0 -88 71 -163 160 -163s160 75 160 163c0 89 -71 163 -160 163zM165 694c33 0 60 -27 60 -60c0 -34 -27 -61 -60 -61c-34 0 -61 27 -61 61
c0 33 27 60 61 60zM376 694c33 0 60 -27 60 -60c0 -34 -27 -61 -60 -61c-34 0 -61 27 -61 61c0 33 27 60 61 60z" />
    <glyph glyph-name="ograve" unicode="&#xf2;" horiz-adv-x="540" 
d="M270 482c140 0 250 -108 250 -249s-110 -249 -250 -249s-250 108 -250 249s110 249 250 249zM270 396c-89 0 -160 -74 -160 -163c0 -88 71 -163 160 -163s160 75 160 163c0 89 -71 163 -160 163zM126 690l83 44l125 -166l-44 -27z" />
    <glyph glyph-name="otilde" unicode="&#xf5;" horiz-adv-x="540" 
d="M270 482c140 0 250 -108 250 -249s-110 -249 -250 -249s-250 108 -250 249s110 249 250 249zM270 396c-89 0 -160 -74 -160 -163c0 -88 71 -163 160 -163s160 75 160 163c0 89 -71 163 -160 163zM126 573l-47 40l3 5c27 39 55 76 108 76c34 0 63 -12 89 -26
s50 -27 72 -27c29 0 50 25 64 48l47 -39c-23 -47 -63 -82 -118 -82c-28 0 -56 13 -83 26c-26 12 -52 25 -78 25c-25 0 -47 -25 -57 -46z" />
    <glyph glyph-name="scaron" unicode="&#x161;" horiz-adv-x="384" 
d="M323 400l-73 -39c-11 23 -34 41 -60 41c-25 0 -49 -20 -49 -46c0 -41 54 -59 109 -84s108 -59 108 -133c0 -89 -74 -155 -161 -155c-68 0 -137 39 -162 105l77 35c19 -35 42 -60 85 -60c38 0 71 26 71 66c0 25 -12 37 -33 51l-88 47c-52 28 -90 54 -90 118
c0 76 62 136 138 136c57 0 103 -31 128 -82zM32 688l58 46l101 -96l102 96l59 -46l-161 -145z" />
    <glyph glyph-name="uacute" unicode="&#xfa;" horiz-adv-x="512" 
d="M58 468h90v-259c0 -75 19 -141 108 -141s108 66 108 141v259h90v-269c0 -128 -60 -215 -198 -215s-198 87 -198 215v269zM317 734l83 -44l-164 -149l-44 27z" />
    <glyph glyph-name="ucircumflex" unicode="&#xfb;" horiz-adv-x="512" 
d="M58 468h90v-259c0 -75 19 -141 108 -141s108 66 108 141v259h90v-269c0 -128 -60 -215 -198 -215s-198 87 -198 215v269zM96 589l159 145l161 -145l-59 -46l-102 96l-101 -96z" />
    <glyph glyph-name="udieresis" unicode="&#xfc;" horiz-adv-x="512" 
d="M58 468h90v-259c0 -75 19 -141 108 -141s108 66 108 141v259h90v-269c0 -128 -60 -215 -198 -215s-198 87 -198 215v269zM151 694c33 0 60 -27 60 -60c0 -34 -27 -61 -60 -61c-34 0 -61 27 -61 61c0 33 27 60 61 60zM362 694c33 0 60 -27 60 -60c0 -34 -27 -61 -60 -61
c-34 0 -61 27 -61 61c0 33 27 60 61 60z" />
    <glyph glyph-name="ugrave" unicode="&#xf9;" horiz-adv-x="512" 
d="M58 468h90v-259c0 -75 19 -141 108 -141s108 66 108 141v259h90v-269c0 -128 -60 -215 -198 -215s-198 87 -198 215v269zM112 690l83 44l125 -166l-44 -27z" />
    <glyph glyph-name="yacute" unicode="&#xfd;" horiz-adv-x="484" 
d="M201 80l-214 388h105l158 -297l147 297h101l-379 -736h-102zM323 734l83 -44l-164 -149l-44 27z" />
    <glyph glyph-name="ydieresis" unicode="&#xff;" horiz-adv-x="484" 
d="M201 80l-214 388h105l158 -297l147 297h101l-379 -736h-102zM147 694c33 0 60 -27 60 -60c0 -34 -27 -61 -60 -61c-34 0 -61 27 -61 61c0 33 27 60 61 60zM358 694c33 0 60 -27 60 -60c0 -34 -27 -61 -60 -61c-34 0 -61 27 -61 61c0 33 27 60 61 60z" />
    <glyph glyph-name="zcaron" unicode="&#x17e;" horiz-adv-x="495" 
d="M177 84h304v-84h-479l317 384h-263v84h438zM103 688l58 46l101 -96l102 96l59 -46l-161 -145z" />
    <glyph glyph-name="Omega" unicode="&#x2126;" horiz-adv-x="745" 
d="M204 70v3c-73 69 -140 186 -140 336c0 212 134 360 312 360c187 0 304 -169 304 -355c0 -156 -71 -278 -141 -341v-3h155v-70h-252v51c78 55 153 174 153 347c0 141 -74 300 -220 300c-138 0 -226 -133 -226 -303c0 -161 75 -291 152 -344v-51h-251v70h154z" />
    <glyph glyph-name="uni03BC" unicode="&#x3bc;" horiz-adv-x="512" 
d="M58 468h90v-259c0 -75 19 -141 108 -141s108 66 108 141v259h90v-269c0 -128 -60 -215 -198 -215c-40 0 -82 22 -108 44v-296h-90v736z" />
    <glyph glyph-name="pi" unicode="&#x3c0;" horiz-adv-x="598" 
d="M570 491h-83v-333c0 -88 7 -129 15 -158h-81c-10 18 -17 65 -17 151v340h-185c-5 -138 -36 -385 -75 -491h-82c40 119 70 348 75 491c-64 0 -93 -5 -115 -13l-12 57c26 17 71 29 152 29h415z" />
    <glyph glyph-name="Euro" unicode="&#x20ac;" 
d="M532 723v-87c-30 28 -80 53 -154 53c-115 0 -173 -85 -185 -202h295l-23 -69h-281c0 -11 -1 -27 -1 -39c0 -15 1 -31 1 -41h253l-23 -69h-221c15 -134 79 -205 186 -205c73 0 120 23 153 53v-89c-25 -21 -82 -43 -165 -43c-145 0 -238 88 -262 284h-78l23 69h48
c-1 10 -2 27 -2 41c0 13 1 28 1 39h-70l23 69h53c22 166 100 282 264 282c79 0 138 -24 165 -46z" />
    <glyph glyph-name="afii61289" unicode="&#x2113;" horiz-adv-x="509" 
d="M446 159l39 -36c-46 -90 -114 -134 -196 -134c-122 0 -170 93 -174 200v14c-19 -15 -40 -33 -60 -49l-25 48c30 26 59 49 84 75v295c0 196 82 260 163 260c89 0 130 -77 130 -176c0 -135 -85 -265 -213 -395v-39c1 -119 52 -166 112 -166c65 0 114 55 140 103zM194 576
v-231c88 101 157 206 157 311c0 68 -20 112 -73 112c-39 0 -84 -47 -84 -192z" />
    <glyph glyph-name="estimated" unicode="&#x212e;" horiz-adv-x="948" 
d="M910 366h-707c-4 0 -6 -1 -6 -5v-214c0 -9 4 -17 9 -24c69 -71 163 -116 268 -116c113 0 213 51 281 130h63c-78 -92 -205 -152 -345 -152c-241 0 -436 175 -436 392s195 393 436 393c242 0 437 -176 437 -393v-11zM749 394v215c0 9 -3 19 -10 26
c-69 67 -162 111 -265 111c-104 0 -198 -45 -266 -115c-7 -7 -11 -16 -11 -27v-210c0 -2 2 -7 6 -7h542c3 0 4 5 4 7z" />
    <glyph glyph-name="partialdiff" unicode="&#x2202;" horiz-adv-x="573" 
d="M107 725l-28 63c34 28 90 60 175 60c136 0 266 -129 266 -410c0 -260 -95 -449 -274 -449c-136 0 -201 125 -201 250c0 171 105 278 223 278c94 0 152 -67 168 -99h2c1 12 1 33 1 46c0 185 -87 313 -194 313c-64 0 -109 -27 -138 -52zM253 60h2c97 0 160 132 173 275
c-15 46 -68 113 -147 113c-85 0 -153 -95 -153 -209c0 -104 49 -179 125 -179z" />
    <glyph glyph-name="product" unicode="&#x220f;" horiz-adv-x="731" 
d="M703 680h-113v-785h-82v785h-286v-785h-82v785h-112v77h675v-77z" />
    <glyph glyph-name="summation" unicode="&#x2211;" 
d="M555 -105h-531v57l279 373l-267 373v59h502v-72h-387v-4l247 -343l-269 -359v-4h426v-80z" />
    <glyph glyph-name="uni2219" unicode="&#x2219;" horiz-adv-x="289" 
d="M145 314c32 0 58 -27 58 -58c0 -32 -26 -58 -58 -58s-58 26 -58 58c0 31 26 58 58 58z" />
    <glyph glyph-name="radical" unicode="&#x221a;" horiz-adv-x="601" 
d="M601 901l-232 -1062h-73l-166 501l-78 -29l-16 51l146 57l131 -395c6 -28 14 -60 18 -81l2 -1c3 21 8 54 14 82l193 877h61z" />
    <glyph glyph-name="infinity" unicode="&#x221e;" horiz-adv-x="821" 
d="M768 315v-1c0 -104 -79 -170 -163 -170c-66 0 -119 40 -193 126c-56 -65 -114 -126 -200 -126s-159 72 -159 166c0 98 71 169 167 169c79 0 139 -59 195 -125c54 59 108 125 198 125c92 0 155 -67 155 -164zM219 196h2c67 0 118 65 162 112c-47 58 -95 121 -170 121
c-67 0 -105 -56 -105 -120c1 -62 45 -113 111 -113zM607 429h-1c-71 0 -126 -78 -163 -116c69 -78 109 -117 166 -117c66 0 104 60 104 114c0 74 -45 119 -106 119z" />
    <glyph glyph-name="integral" unicode="&#x222b;" horiz-adv-x="381" 
d="M362 912l-13 -59c-9 6 -24 11 -38 11c-18 0 -39 -8 -53 -26c-26 -32 -35 -91 -35 -193c0 -170 14 -366 14 -544c0 -116 -20 -181 -45 -219c-23 -39 -65 -57 -107 -57c-28 0 -56 9 -69 17l14 61c9 -4 27 -12 47 -12c18 0 37 8 49 25c20 27 34 76 34 185
c0 180 -14 379 -14 552c0 119 15 186 57 230c27 30 64 43 101 43c23 0 47 -7 58 -14z" />
    <glyph glyph-name="approxequal" unicode="&#x2248;" horiz-adv-x="588" 
d="M506 465l34 -29c-28 -57 -72 -102 -136 -102c-42 0 -72 16 -122 44c-32 19 -62 36 -97 36c-49 0 -77 -37 -103 -79l-35 29c31 63 84 103 145 103c51 0 89 -28 117 -44c37 -20 61 -37 98 -37c43 0 70 29 99 79zM506 284l34 -30c-28 -56 -71 -101 -136 -101
c-42 0 -72 16 -122 44c-33 19 -62 36 -97 36c-49 0 -77 -38 -103 -79l-35 29c31 62 84 102 145 102c52 0 88 -27 117 -42c35 -20 61 -38 99 -38c42 0 69 28 98 79z" />
    <glyph glyph-name="notequal" unicode="&#x2260;" horiz-adv-x="588" 
d="M419 541l-47 -103h162v-54h-183l-70 -153h253v-54h-274l-56 -123l-43 19l48 104h-156v54h178l69 153h-247v54h268l55 122z" />
    <glyph glyph-name="lessequal" unicode="&#x2264;" horiz-adv-x="588" 
d="M531 107l-472 240v57l472 239v-65l-415 -201v-2l415 -203v-65zM535 8h-481v56h481v-56z" />
    <glyph glyph-name="greaterequal" unicode="&#x2265;" horiz-adv-x="588" 
d="M60 643l472 -240v-56l-471 -240v65l414 202v2l-415 202v65zM534 8h-479v56h479v-56z" />
    <glyph glyph-name="lozenge" unicode="&#x25ca;" horiz-adv-x="602" 
d="M544 378l-211 -426h-68l-208 426l211 427h68zM468 376l-146 298c-8 19 -16 43 -20 59h-3c-5 -18 -11 -38 -20 -59l-146 -294l147 -300c9 -22 16 -44 19 -57h4c3 14 12 42 18 56z" />
    <glyph glyph-name="uni00A0" unicode="&#xa0;" horiz-adv-x="289" 
 />
    <glyph glyph-name="uni00AD" unicode="&#xad;" horiz-adv-x="332" 
d="M57 358h219v-75h-219v75z" />
    <glyph glyph-name="uni02C9" unicode="&#x2c9;" horiz-adv-x="500" 
d="M70 694h361v-68h-361v68z" />
    <glyph glyph-name="uni03A9" unicode="&#x3a9;" horiz-adv-x="745" 
d="M204 70v3c-73 69 -140 186 -140 336c0 212 134 360 312 360c187 0 304 -169 304 -355c0 -156 -71 -278 -141 -341v-3h155v-70h-252v51c78 55 153 174 153 347c0 141 -74 300 -220 300c-138 0 -226 -133 -226 -303c0 -161 75 -291 152 -344v-51h-251v70h154z" />
    <glyph glyph-name="uni2215" unicode="&#x2215;" horiz-adv-x="165" 
d="M277 770l51 -26l-440 -760l-51 28z" />
    <glyph glyph-name="a.superior" horiz-adv-x="334" 
d="M167 519c64 0 99 47 99 102s-36 101 -99 101c-60 0 -96 -49 -96 -101c0 -53 34 -102 96 -102zM322 761v-280h-59v43h-2c-23 -31 -59 -53 -103 -53c-93 0 -146 71 -146 152c0 77 56 147 144 147c45 0 81 -22 106 -55h1v46h59z" />
    <glyph glyph-name="o.superior" horiz-adv-x="324" 
d="M162 770c91 0 163 -65 163 -150c0 -84 -72 -149 -163 -149s-162 65 -162 149c0 85 71 150 162 150zM162 718c-58 0 -103 -44 -103 -98c0 -52 45 -97 103 -97s104 45 104 97c0 54 -46 98 -104 98z" />
    <glyph glyph-name="one.superior" horiz-adv-x="346" 
d="M151 696h-86l34 58h116v-452h-64v394z" />
    <glyph glyph-name="two.superior" horiz-adv-x="346" 
d="M144 360h188v-58h-317l215 243c20 23 38 51 38 81c0 47 -50 80 -91 80c-49 0 -85 -31 -88 -76h-67c9 80 66 134 155 134c83 0 155 -57 155 -136c0 -33 -12 -69 -33 -93z" />
    <glyph glyph-name="three.superior" horiz-adv-x="346" 
d="M163 518v58c56 0 94 22 94 67c0 46 -42 69 -83 69c-39 0 -75 -17 -75 -56h-67c12 74 63 114 144 114c78 0 145 -46 145 -122c0 -44 -24 -80 -66 -102c48 -21 73 -63 73 -112c0 -85 -72 -136 -160 -136c-76 0 -145 47 -149 122h64c7 -45 40 -64 90 -64c48 0 91 31 91 80
c0 52 -45 84 -101 82z" />
    <glyph glyph-name="uni2206" unicode="&#x2206;" horiz-adv-x="676" 
d="M33 0v57l258 720h97l254 -719v-58h-609zM117 69h436l-147 407c-18 59 -55 150 -68 200h-4c-10 -41 -43 -125 -61 -184z" />
    <glyph glyph-name="uni2010" unicode="&#x2010;" horiz-adv-x="332" 
d="M57 358h219v-75h-219v75z" />
    </font>
</defs>
</svg>
