<?xml version="1.0" standalone="no"?>
<!DOCTYPE svg PUBLIC "-//W3C//DTD SVG 1.1//EN" "http://www.w3.org/Graphics/SVG/1.1/DTD/svg11.dtd" >
<svg>
<metadata>
Created by FontForge 20120731 at Sat Jul 13 08:03:47 2019
 By www
 Copyright (c) 1987, 1991, 1993, 2002 Fundicion Tipografica Neufville S. A.
 This record material and the data recorded thereon is the property of
 Fundicion Tipografica Neufville S. A. and Adobe Systems Incorporated,
 or its licensors, and may not be reproduced, used, displayed, modified,
 disclosed or transferred in any manner without the express written
 approval of Fundicion Tipografica Neufville S. A. and Adobe Systems
 Incorporated. 
</metadata>
<defs>
<font id="FuturaStd-Heavy" horiz-adv-x="578" >
  <font-face 
    font-family="Futura Std"
    font-weight="650"
    font-stretch="normal"
    units-per-em="1000"
    panose-1="2 11 7 2 2 2 4 2 2 3"
    ascent="825"
    descent="-175"
    x-height="491"
    cap-height="754"
    bbox="-148 -264 1178 1002"
    underline-thickness="50"
    underline-position="-50"
    stemh="124"
    stemv="140"
    unicode-range="U+0020-FB02"
  />
<missing-glyph horiz-adv-x="500" 
d="M0 0v700h500v-700h-500zM250 395l170 255h-340zM280 350l170 -255v510zM80 50h340l-170 255zM50 605v-510l170 255z" />
    <glyph glyph-name="f_i" unicode="fi" horiz-adv-x="544" 
d="M195 373v-373h-140v373h-47v118h47v144c0 120 50 225 185 225c23 0 46 -5 67 -16v-125c-18 9 -36 17 -57 17c-62 0 -55 -81 -55 -121v-124h112v-118h-112zM487 491v-491h-140v491h140zM417 780c46 0 83 -38 83 -83c0 -46 -37 -83 -83 -83s-83 37 -83 83c0 45 37 83 83 83
z" />
    <glyph glyph-name="f_l" unicode="fl" horiz-adv-x="543" 
d="M493 848v-848h-140v848h140zM195 373v-373h-140v373h-47v118h47v144c0 120 50 225 185 225c23 0 46 -5 67 -16v-125c-18 9 -36 17 -57 17c-62 0 -55 -81 -55 -121v-124h112v-118h-112z" />
    <glyph glyph-name=".notdef" horiz-adv-x="500" 
d="M0 0v700h500v-700h-500zM250 395l170 255h-340zM280 350l170 -255v510zM80 50h340l-170 255zM50 605v-510l170 255z" />
    <glyph glyph-name="space" unicode=" " horiz-adv-x="289" 
 />
    <glyph glyph-name="exclam" unicode="!" horiz-adv-x="325" 
d="M162 158c49 0 89 -39 89 -88s-40 -90 -89 -90s-89 41 -89 90s40 88 89 88zM91 217v537h142v-537h-142z" />
    <glyph glyph-name="quotedbl" unicode="&#x22;" horiz-adv-x="488" 
d="M88 754h120l-18 -328h-84zM280 754h120l-18 -328h-84z" />
    <glyph glyph-name="numbersign" unicode="#" 
d="M211 726h106l-39 -203h101l39 203h105l-39 -203h80v-113h-98l-24 -124h94v-113h-118l-33 -173h-106l33 173h-101l-33 -173h-106l33 173h-91v113h113l24 124h-96v113h117zM257 410l-24 -124h102l26 124h-104z" />
    <glyph glyph-name="dollar" unicode="$" 
d="M268 -100v95c-105 12 -164 56 -214 148l89 86c28 -55 73 -107 140 -107c58 0 97 45 97 101c0 70 -71 92 -142 126s-142 78 -142 193c0 111 64 193 172 213v93h73v-94c67 -8 116 -33 159 -86l-67 -95c-27 35 -66 61 -111 61c-44 0 -85 -33 -85 -79c0 -61 72 -82 143 -117
c72 -35 143 -84 143 -203c0 -114 -67 -212 -182 -235v-100h-73z" />
    <glyph glyph-name="percent" unicode="%" horiz-adv-x="772" 
d="M184 774c102 0 179 -75 179 -179c0 -103 -76 -178 -179 -178s-179 75 -179 178c0 104 77 179 179 179zM184 693c-50 0 -80 -52 -80 -98s30 -97 80 -97s80 51 80 97s-30 98 -80 98zM587 337c102 0 179 -75 179 -179c0 -103 -76 -178 -179 -178s-179 75 -179 178
c0 104 77 179 179 179zM587 256c-50 0 -80 -52 -80 -98s30 -97 80 -97s80 51 80 97s-30 98 -80 98zM553 780l68 -34l-404 -777l-69 35z" />
    <glyph glyph-name="ampersand" unicode="&#x26;" horiz-adv-x="702" 
d="M383 177l-117 157c-40 -30 -85 -66 -85 -121c0 -48 40 -101 90 -101c46 0 81 35 112 65zM283 543l36 -51l25 21c26 22 42 46 42 82c0 35 -20 74 -59 74c-40 0 -62 -34 -62 -70c0 -20 6 -39 18 -56zM531 0l-61 76c-62 -54 -131 -96 -216 -96c-127 0 -221 93 -221 220
c0 84 41 150 109 196l45 31c-35 49 -61 99 -61 160c0 112 84 187 192 187c109 0 193 -73 193 -186c0 -83 -60 -140 -124 -182l105 -135l76 97l93 -87l-81 -109l130 -172h-179z" />
    <glyph glyph-name="quoteright" unicode="&#x2019;" horiz-adv-x="296" 
d="M139 774l128 -15l-144 -300l-93 11z" />
    <glyph glyph-name="parenleft" unicode="(" horiz-adv-x="271" 
d="M175 832l86 -58c-60 -136 -82 -302 -82 -450c0 -143 22 -318 82 -449l-86 -59c-75 148 -101 349 -101 514c0 162 29 356 101 502z" />
    <glyph glyph-name="parenright" unicode=")" horiz-adv-x="271" 
d="M10 774l86 58c72 -146 101 -340 101 -502c0 -165 -26 -366 -101 -514l-86 59c60 131 82 306 82 449c0 148 -22 314 -82 450z" />
    <glyph glyph-name="asterisk" unicode="*" horiz-adv-x="417" 
d="M166 754h86l-2 -101l77 52l36 -67l-81 -50l81 -50l-36 -67l-77 52l2 -99h-86l3 99l-78 -52l-36 67l79 50l-80 50l35 67l80 -52z" />
    <glyph glyph-name="plus" unicode="+" 
d="M230 512h118v-197h197v-118h-197v-197h-118v197h-197v118h197v197z" />
    <glyph glyph-name="comma" unicode="," horiz-adv-x="289" 
d="M135 156l128 -14l-144 -301l-93 11z" />
    <glyph glyph-name="hyphen" unicode="-" horiz-adv-x="330" 
d="M43 378h244v-115h-244v115z" />
    <glyph glyph-name="period" unicode="." horiz-adv-x="289" 
d="M145 158c49 0 89 -39 89 -88s-40 -90 -89 -90s-89 41 -89 90s40 88 89 88z" />
    <glyph glyph-name="slash" unicode="/" horiz-adv-x="539" 
d="M405 848l97 -35l-368 -975l-97 35z" />
    <glyph glyph-name="zero" unicode="0" 
d="M289 774c202 0 270 -236 270 -398c0 -161 -70 -396 -270 -396s-270 235 -270 396c0 162 68 398 270 398zM289 646c-104 0 -126 -192 -126 -268c0 -75 22 -270 126 -270c105 0 126 195 126 270c0 76 -21 268 -126 268z" />
    <glyph glyph-name="one" unicode="1" 
d="M244 626h-99v128h246v-754h-147v626z" />
    <glyph glyph-name="two" unicode="2" 
d="M289 128h247v-128h-508l192 242c53 66 164 197 164 282c0 54 -35 122 -97 122c-66 0 -96 -72 -93 -129h-156c10 145 93 257 248 257c138 0 245 -105 245 -243c0 -111 -62 -194 -131 -274z" />
    <glyph glyph-name="three" unicode="3" 
d="M199 557h-140c13 130 96 217 231 217c130 0 217 -83 217 -213c0 -58 -21 -123 -72 -157c69 -30 97 -115 97 -184c0 -148 -107 -240 -251 -240c-138 0 -242 103 -250 238h148c3 -60 43 -110 108 -110c66 0 101 62 101 121c0 60 -40 125 -106 120l-27 -2v105h16
c63 0 96 41 96 104c0 50 -31 96 -86 96c-52 0 -80 -49 -82 -95z" />
    <glyph glyph-name="four" unicode="4" 
d="M473 251h80v-118h-80v-133h-138v133h-332v66l336 569h134v-517zM335 251v300h-2l-159 -300h161z" />
    <glyph glyph-name="five" unicode="5" 
d="M499 626h-224l-26 -115l38 2c147 0 243 -121 243 -262c0 -162 -113 -271 -274 -271c-89 0 -165 33 -224 100l44 126c39 -56 101 -98 170 -98c82 0 135 71 135 149c0 82 -64 150 -147 150c-43 0 -90 -20 -121 -49h-23l81 396h328v-128z" />
    <glyph glyph-name="six" unicode="6" 
d="M313 785l108 -78l-155 -219l2 -2c17 7 38 10 59 10c138 0 224 -120 224 -250c0 -155 -111 -266 -266 -266c-149 0 -264 105 -264 256c0 90 43 179 92 252zM284 100c74 0 119 73 119 140c0 68 -45 141 -119 141s-120 -73 -120 -141c0 -67 46 -140 120 -140z" />
    <glyph glyph-name="seven" unicode="7" 
d="M359 626h-316v128h539l-413 -774l-121 69z" />
    <glyph glyph-name="eight" unicode="8" 
d="M289 333c-61 0 -96 -60 -96 -116c0 -55 35 -115 96 -115s96 60 96 115c0 56 -35 116 -96 116zM167 393c-62 31 -99 97 -99 166c0 129 97 215 221 215s221 -86 221 -215c0 -69 -37 -135 -99 -166c82 -31 122 -105 122 -192c0 -136 -117 -221 -244 -221s-244 85 -244 221
c0 87 40 161 122 192zM289 664c-55 0 -87 -56 -87 -105c0 -50 32 -106 87 -106s87 56 87 106c0 49 -32 105 -87 105z" />
    <glyph glyph-name="nine" unicode="9" 
d="M264 -32l-108 79l155 219l-2 2c-17 -7 -38 -11 -59 -11c-138 0 -224 120 -224 250c0 156 111 267 266 267c149 0 264 -105 264 -257c0 -90 -43 -179 -92 -252zM293 654c-74 0 -119 -73 -119 -141s45 -141 119 -141s120 73 120 141s-46 141 -120 141z" />
    <glyph glyph-name="colon" unicode=":" horiz-adv-x="289" 
d="M145 158c49 0 89 -39 89 -88s-40 -90 -89 -90s-89 41 -89 90s40 88 89 88zM145 518c49 0 89 -39 89 -88s-40 -90 -89 -90s-89 41 -89 90s40 88 89 88z" />
    <glyph glyph-name="semicolon" unicode=";" horiz-adv-x="289" 
d="M125 156l128 -14l-144 -301l-93 11zM185 518c49 0 89 -39 89 -88s-40 -90 -89 -90s-89 41 -89 90s40 88 89 88z" />
    <glyph glyph-name="less" unicode="&#x3c;" 
d="M33 196v120l512 182v-126l-325 -115v-2l325 -115v-126z" />
    <glyph glyph-name="equal" unicode="=" 
d="M33 315v118h512v-118h-512zM33 79v118h512v-118h-512z" />
    <glyph glyph-name="greater" unicode="&#x3e;" 
d="M545 316v-120l-512 -182v126l325 115v2l-325 115v126z" />
    <glyph glyph-name="question" unicode="?" horiz-adv-x="487" 
d="M148 257v199c12 -3 24 -4 36 -4c67 0 128 40 128 112c0 40 -23 88 -69 88c-45 0 -67 -42 -67 -82v-12h-146c-6 121 91 216 212 216c123 0 215 -92 215 -215c0 -98 -65 -184 -161 -206l-8 -96h-140zM220 158c49 0 89 -39 89 -88s-40 -90 -89 -90s-89 41 -89 90
s40 88 89 88z" />
    <glyph glyph-name="at" unicode="@" horiz-adv-x="975" 
d="M590 372c10 82 -33 121 -102 121c-81 0 -124 -73 -124 -147c0 -60 30 -108 92 -108c89 0 125 61 134 134zM615 507l14 63h71l-50 -260c-7 -34 -20 -86 14 -86c46 0 102 93 102 194c0 169 -111 270 -264 270c-168 0 -293 -136 -293 -311c0 -185 145 -311 316 -311
c83 0 143 16 180 43l75 -60c-71 -39 -138 -69 -269 -69c-215 0 -388 168 -388 397c0 226 169 397 382 397c88 0 169 -27 235 -88c68 -59 112 -138 112 -232c0 -84 -22 -162 -62 -214c-48 -64 -106 -90 -154 -88c-28 1 -48 24 -54 62c-34 -34 -76 -62 -136 -62
c-88 0 -168 83 -168 187c0 122 80 240 204 240c51 0 93 -19 133 -72z" />
    <glyph glyph-name="A" unicode="A" horiz-adv-x="676" 
d="M470 159h-262l-62 -159h-155l294 774h114l286 -774h-157zM429 279l-94 274h-2l-83 -274h179z" />
    <glyph glyph-name="B" unicode="B" horiz-adv-x="553" 
d="M201 328v-210h31c79 0 147 10 147 108s-80 102 -154 102h-24zM54 0v754h183c140 0 226 -55 226 -205c0 -54 -19 -116 -66 -146c89 -16 129 -106 129 -189c0 -148 -104 -214 -241 -214h-231zM201 636v-196h18c72 0 107 21 107 99c0 77 -44 97 -106 97h-19z" />
    <glyph glyph-name="C" unicode="C" horiz-adv-x="601" 
d="M558 730v-176c-41 50 -103 80 -166 80c-141 0 -222 -130 -222 -260c0 -127 84 -254 221 -254c63 0 126 33 167 80v-175c-55 -26 -110 -45 -171 -45c-212 0 -369 183 -369 391c0 214 151 403 372 403c59 0 117 -16 168 -44z" />
    <glyph glyph-name="D" unicode="D" horiz-adv-x="646" 
d="M54 0v754h210c218 0 364 -163 364 -378c0 -212 -150 -376 -365 -376h-209zM201 626v-498h24c181 0 251 100 251 249c0 164 -84 249 -251 249h-24z" />
    <glyph glyph-name="E" unicode="E" horiz-adv-x="488" 
d="M444 626h-243v-166h234v-128h-234v-204h243v-128h-390v754h390v-128z" />
    <glyph glyph-name="F" unicode="F" horiz-adv-x="463" 
d="M428 626h-227v-166h213v-128h-213v-332h-147v754h374v-128z" />
    <glyph glyph-name="G" unicode="G" horiz-adv-x="739" 
d="M395 401h325v-19c0 -213 -109 -402 -343 -402c-220 0 -359 186 -359 394c0 215 143 400 368 400c128 0 240 -65 298 -180l-130 -70c-30 68 -94 120 -172 120c-142 0 -212 -145 -212 -270s71 -264 213 -264c92 0 169 80 172 171h-160v120z" />
    <glyph glyph-name="H" unicode="H" horiz-adv-x="674" 
d="M201 457h272v297h147v-754h-147v337h-272v-337h-147v754h147v-297z" />
    <glyph glyph-name="I" unicode="I" horiz-adv-x="254" 
d="M201 754v-754h-147v754h147z" />
    <glyph glyph-name="J" unicode="J" horiz-adv-x="389" 
d="M339 754v-498c0 -70 -2 -130 -44 -191c-39 -57 -101 -85 -169 -85c-55 0 -111 32 -148 71l94 108c7 -22 33 -49 57 -49c72 0 63 122 63 171v473h147z" />
    <glyph glyph-name="K" unicode="K" horiz-adv-x="620" 
d="M203 436l233 318h181l-286 -348l302 -406h-189l-241 339h-2v-339h-147v754h147v-318h2z" />
    <glyph glyph-name="L" unicode="L" horiz-adv-x="402" 
d="M201 754v-626h208v-128h-355v754h147z" />
    <glyph glyph-name="M" unicode="M" horiz-adv-x="836" 
d="M677 0l-60 468h-2l-171 -478h-51l-165 478h-2l-67 -468h-148l127 774h104l186 -497l178 497h106l113 -774h-148z" />
    <glyph glyph-name="N" unicode="N" horiz-adv-x="759" 
d="M54 0v774h106l397 -527h2v507h147v-769h-106l-397 527h-2v-512h-147z" />
    <glyph glyph-name="O" unicode="O" horiz-adv-x="782" 
d="M764 378c0 -222 -143 -398 -373 -398s-373 176 -373 398c0 224 148 396 373 396s373 -172 373 -396zM612 384c0 122 -82 245 -221 245s-221 -123 -221 -245c0 -116 58 -259 221 -259s221 143 221 259z" />
    <glyph glyph-name="P" unicode="P" horiz-adv-x="528" 
d="M201 282v-282h-147v754h200c158 0 261 -63 261 -234c0 -160 -87 -238 -241 -238h-73zM201 632v-228h30c87 0 134 19 134 117c0 97 -56 111 -138 111h-26z" />
    <glyph glyph-name="Q" unicode="Q" horiz-adv-x="782" 
d="M778 -17l-148 -15l-52 63c-51 -34 -118 -51 -187 -51c-220 0 -373 182 -373 398c0 211 153 396 373 396s373 -185 373 -396c0 -102 -31 -198 -89 -273zM498 302l67 -76c33 41 47 104 47 156c0 122 -89 252 -221 252c-143 0 -221 -135 -221 -265c0 -125 77 -247 221 -247
c27 0 59 12 79 25l-124 143z" />
    <glyph glyph-name="R" unicode="R" horiz-adv-x="558" 
d="M351 318l213 -318h-178l-183 304h-2v-304h-147v754h199c149 0 252 -66 252 -227c0 -96 -53 -192 -154 -209zM201 634v-227h19c81 0 138 24 138 116c0 93 -59 111 -137 111h-20z" />
    <glyph glyph-name="S" unicode="S" horiz-adv-x="526" 
d="M478 690l-69 -102c-28 38 -64 62 -113 62c-47 0 -92 -36 -92 -85c0 -127 299 -74 299 -327c0 -151 -94 -258 -248 -258c-104 0 -180 60 -232 147l95 93c20 -58 73 -110 136 -110c60 0 97 51 97 109c0 78 -72 100 -131 123c-97 40 -168 89 -168 206c0 125 93 226 220 226
c67 0 160 -33 206 -84z" />
    <glyph glyph-name="T" unicode="T" horiz-adv-x="451" 
d="M299 626v-626h-147v626h-152v128h451v-128h-152z" />
    <glyph glyph-name="U" unicode="U" horiz-adv-x="660" 
d="M50 303v451h147v-422c0 -93 8 -224 133 -224s133 131 133 224v422h147v-451c0 -184 -78 -323 -280 -323s-280 139 -280 323z" />
    <glyph glyph-name="V" unicode="V" horiz-adv-x="639" 
d="M144 754l181 -508h2l168 508h158l-293 -774h-86l-288 774h158z" />
    <glyph glyph-name="W" unicode="W" horiz-adv-x="977" 
d="M140 754l152 -514h2l150 524h87l156 -524h2l148 514h154l-255 -769h-108l-150 493h-2l-142 -493h-108l-240 769h154z" />
    <glyph glyph-name="X" unicode="X" horiz-adv-x="623" 
d="M233 399l-203 355h174l120 -234l110 234h174l-209 -355l232 -399h-171l-152 276l-144 -276h-172z" />
    <glyph glyph-name="Y" unicode="Y" horiz-adv-x="587" 
d="M218 346l-234 408h171l132 -262l144 262h172l-238 -408v-346h-147v346z" />
    <glyph glyph-name="Z" unicode="Z" horiz-adv-x="575" 
d="M239 128h313v-128h-547l332 626h-281v128h514z" />
    <glyph glyph-name="bracketleft" unicode="[" horiz-adv-x="288" 
d="M151 754v-754h92v-91h-198v936h198v-91h-92z" />
    <glyph glyph-name="backslash" unicode="\" horiz-adv-x="539" 
d="M30 848h112l368 -848h-112z" />
    <glyph glyph-name="bracketright" unicode="]" horiz-adv-x="288" 
d="M137 0v754h-92v91h198v-936h-198v91h92z" />
    <glyph glyph-name="asciicircum" unicode="^" 
d="M33 329l193 425h124l195 -425h-129l-127 283l-127 -283h-129z" />
    <glyph glyph-name="underscore" unicode="_" horiz-adv-x="500" 
d="M500 -75v-50h-500v50h500z" />
    <glyph glyph-name="quoteleft" unicode="&#x2018;" horiz-adv-x="296" 
d="M159 459l-129 14l144 301l93 -11z" />
    <glyph glyph-name="a" unicode="a" horiz-adv-x="565" 
d="M514 491v-491h-138v45h-2c-30 -39 -82 -61 -133 -61c-144 0 -226 131 -226 264c0 130 83 259 224 259c51 0 103 -22 137 -62v46h138zM273 108c72 0 117 72 117 138s-45 137 -117 137s-116 -71 -116 -137s44 -138 116 -138z" />
    <glyph glyph-name="b" unicode="b" horiz-adv-x="565" 
d="M50 0v848h140v-402c32 38 84 61 136 61c139 0 224 -130 224 -259c0 -134 -82 -264 -227 -264c-50 0 -103 22 -131 62h-2v-46h-140zM292 108c72 0 116 72 116 138s-44 137 -116 137s-116 -71 -116 -137s44 -138 116 -138z" />
    <glyph glyph-name="c" unicode="c" horiz-adv-x="421" 
d="M384 476v-135c-30 30 -60 48 -103 48c-79 0 -124 -74 -124 -146c0 -77 49 -141 129 -141c38 0 73 19 98 47v-135c-38 -21 -78 -30 -121 -30c-145 0 -248 119 -248 260c0 146 107 263 255 263c39 0 80 -10 114 -31z" />
    <glyph glyph-name="d" unicode="d" horiz-adv-x="565" 
d="M375 0v46h-2c-29 -40 -81 -62 -132 -62c-144 0 -226 131 -226 264c0 130 83 259 224 259c51 0 103 -22 134 -61h2v402h140v-848h-140zM273 108c72 0 116 72 116 138s-44 137 -116 137s-116 -71 -116 -137s44 -138 116 -138z" />
    <glyph glyph-name="e" unicode="e" horiz-adv-x="501" 
d="M486 223h-323c0 -62 24 -132 97 -132c46 0 75 28 94 67l129 -21c-34 -98 -120 -153 -223 -153c-152 0 -245 108 -245 257s79 266 238 266c161 0 233 -119 233 -267v-17zM167 310h187c-7 50 -39 99 -93 99c-56 0 -87 -48 -94 -99z" />
    <glyph glyph-name="f" unicode="f" horiz-adv-x="303" 
d="M195 373v-373h-140v373h-47v118h47v144c0 120 50 225 185 225c23 0 46 -5 67 -16v-125c-18 9 -36 17 -57 17c-62 0 -55 -81 -55 -121v-124h112v-118h-112z" />
    <glyph glyph-name="g" unicode="g" horiz-adv-x="562" 
d="M512 491v-461c0 -160 -54 -292 -238 -292c-120 0 -241 73 -248 204h148c7 -52 44 -86 97 -86c99 0 101 87 101 161v32h-2c-30 -40 -82 -65 -134 -65c-144 0 -221 126 -221 258c0 135 82 265 228 265c49 0 99 -25 127 -63h2v47h140zM273 108c72 0 116 71 116 137
s-44 138 -116 138s-116 -72 -116 -138s44 -137 116 -137z" />
    <glyph glyph-name="h" unicode="h" horiz-adv-x="540" 
d="M50 848h140v-398h2c29 40 78 57 128 57c132 0 170 -93 170 -207v-300h-140v260c0 59 3 135 -76 135c-83 0 -84 -93 -84 -152v-243h-140v848z" />
    <glyph glyph-name="i" unicode="i" horiz-adv-x="253" 
d="M197 491v-491h-140v491h140zM127 780c46 0 83 -38 83 -83c0 -46 -37 -83 -83 -83s-83 37 -83 83c0 45 37 83 83 83z" />
    <glyph glyph-name="j" unicode="j" horiz-adv-x="253" 
d="M197 491v-753h-140v753h140zM127 780c46 0 83 -38 83 -83c0 -46 -37 -83 -83 -83s-83 37 -83 83c0 45 37 83 83 83z" />
    <glyph glyph-name="k" unicode="k" horiz-adv-x="526" 
d="M190 848v-537h2l147 180h182l-207 -216l223 -275h-184l-161 209h-2v-209h-140v848h140z" />
    <glyph glyph-name="l" unicode="l" horiz-adv-x="239" 
d="M190 848v-848h-140v848h140z" />
    <glyph glyph-name="m" unicode="m" horiz-adv-x="802" 
d="M190 491v-44h2c27 39 75 60 120 60c61 0 109 -25 141 -77c30 48 86 77 143 77c125 0 156 -94 156 -201v-306h-140v258c0 48 3 137 -66 137c-76 0 -75 -103 -75 -154v-241h-140v249c0 48 6 146 -67 146c-78 0 -74 -102 -74 -154v-241h-140v491h140z" />
    <glyph glyph-name="n" unicode="n" horiz-adv-x="540" 
d="M190 491v-45h2c29 44 78 61 128 61c132 0 170 -93 170 -207v-300h-140v260c0 59 3 135 -76 135c-83 0 -84 -93 -84 -152v-243h-140v491h140z" />
    <glyph glyph-name="o" unicode="o" horiz-adv-x="548" 
d="M274 507c153 0 258 -109 258 -262c0 -152 -104 -261 -258 -261s-258 109 -258 261c0 153 105 262 258 262zM274 383c-72 0 -116 -70 -116 -138c0 -66 44 -137 116 -137s116 71 116 137c0 68 -44 138 -116 138z" />
    <glyph glyph-name="p" unicode="p" horiz-adv-x="565" 
d="M190 491v-45c32 38 84 61 136 61c139 0 224 -130 224 -259c0 -134 -82 -264 -227 -264c-50 0 -103 22 -131 62h-2v-308h-140v753h140zM292 108c72 0 116 72 116 138s-44 137 -116 137s-116 -71 -116 -137s44 -138 116 -138z" />
    <glyph glyph-name="q" unicode="q" horiz-adv-x="565" 
d="M273 108c72 0 116 72 116 138s-44 137 -116 137s-116 -71 -116 -137s44 -138 116 -138zM515 491v-753h-140v308h-2c-29 -40 -81 -62 -132 -62c-144 0 -226 131 -226 264c0 130 83 259 224 259c51 0 103 -22 134 -61h2v45h140z" />
    <glyph glyph-name="r" unicode="r" horiz-adv-x="367" 
d="M190 491v-51h2c28 43 70 67 122 67c20 0 40 -5 58 -12l-17 -130c-17 12 -37 18 -58 18c-97 0 -107 -86 -107 -162v-221h-140v491h140z" />
    <glyph glyph-name="s" unicode="s" horiz-adv-x="410" 
d="M362 456l-60 -81c-20 19 -46 34 -74 34c-23 0 -46 -18 -46 -42c0 -36 51 -46 101 -68c51 -22 101 -56 101 -141c0 -109 -88 -174 -191 -174c-66 0 -130 30 -173 82l64 83c27 -30 63 -57 104 -57c31 0 56 21 56 53c0 43 -49 53 -98 74s-98 50 -98 129c0 92 64 159 156 159
c52 0 118 -16 158 -51z" />
    <glyph glyph-name="t" unicode="t" horiz-adv-x="274" 
d="M207 373v-373h-140v373h-48v118h48v166h140v-166h86v-118h-86z" />
    <glyph glyph-name="u" unicode="u" horiz-adv-x="535" 
d="M47 491h140v-266c0 -56 9 -123 80 -123s80 67 80 123v266h140v-289c0 -143 -74 -218 -220 -218s-220 75 -220 218v289z" />
    <glyph glyph-name="v" unicode="v" horiz-adv-x="488" 
d="M136 491l115 -277l101 277h153l-226 -501h-72l-225 501h154z" />
    <glyph glyph-name="w" unicode="w" horiz-adv-x="783" 
d="M135 491l102 -283l120 299h67l121 -303l104 287h152l-228 -501h-71l-105 299l-117 -299h-72l-226 501h153z" />
    <glyph glyph-name="x" unicode="x" horiz-adv-x="549" 
d="M192 267l-169 224h170l91 -127l78 127h172l-174 -224l207 -267h-172l-126 171l-113 -171h-174z" />
    <glyph glyph-name="y" unicode="y" horiz-adv-x="520" 
d="M191 75l-209 416h159l117 -279l126 279h156l-357 -753h-154z" />
    <glyph glyph-name="z" unicode="z" horiz-adv-x="481" 
d="M232 118h233v-118h-466l251 373h-212v118h443z" />
    <glyph glyph-name="braceleft" unicode="{" horiz-adv-x="389" 
d="M68 300v73c50 22 75 76 75 151v182c0 80 55 132 85 132h92v-91h-40c-31 0 -31 -29 -31 -62v-177c0 -115 -63 -163 -76 -172c13 -8 76 -56 76 -171v-177c0 -33 0 -62 31 -62h40v-91h-92c-30 0 -85 52 -85 132v182c0 75 -25 129 -75 151z" />
    <glyph glyph-name="bar" unicode="|" horiz-adv-x="538" 
d="M328 786v-1000h-118v1000h118z" />
    <glyph glyph-name="braceright" unicode="}" horiz-adv-x="389" 
d="M321 373v-73c-50 -22 -75 -76 -75 -151v-182c0 -80 -55 -132 -85 -132h-92v91h40c31 0 31 29 31 62v177c0 115 63 163 76 171c-13 9 -76 57 -76 172v177c0 33 0 62 -31 62h-40v91h92c30 0 85 -52 85 -132v-182c0 -75 25 -129 75 -151z" />
    <glyph glyph-name="asciitilde" unicode="~" 
d="M446 363l99 -90c-31 -54 -80 -143 -152 -143c-43 0 -76 25 -107 44c-39 24 -71 53 -98 53c-22 0 -44 -48 -56 -77l-99 88c37 48 82 145 153 145c37 0 79 -25 112 -51c27 -23 67 -47 94 -47c23 0 45 53 54 78z" />
    <glyph glyph-name="exclamdown" unicode="&#xa1;" horiz-adv-x="325" 
d="M162 514c49 0 89 -39 89 -88s-40 -90 -89 -90s-89 41 -89 90s40 88 89 88zM91 -264v537h142v-537h-142z" />
    <glyph glyph-name="cent" unicode="&#xa2;" 
d="M389 724v-87c28 -5 58 -11 83 -25v-141c-30 33 -56 50 -101 50c-79 0 -124 -72 -124 -145s47 -139 125 -139c39 0 77 19 98 50h2v-141c-26 -14 -54 -22 -83 -25v-93h-73v91c-133 11 -211 135 -211 260c0 131 76 243 211 261v84h73z" />
    <glyph glyph-name="sterling" unicode="&#xa3;" 
d="M119 0l-109 19c22 68 66 143 146 146c7 19 11 38 11 59c0 29 -8 58 -22 84h-131v66h93c-22 44 -41 104 -41 153c0 146 110 247 253 247c166 0 231 -105 238 -258l-147 -17l2 34c3 54 -38 118 -97 118c-70 0 -104 -66 -104 -128c0 -50 20 -95 42 -139l5 -10h136v-66h-112
c4 -24 5 -52 4 -78c-1 -25 -3 -51 -4 -76l67 -27c24 -10 48 -16 63 -16c33 0 47 31 55 59l104 -22c-20 -81 -59 -156 -154 -156c-39 0 -79 14 -119 29c-39 15 -77 29 -112 29c-33 0 -57 -19 -67 -50z" />
    <glyph glyph-name="fraction" unicode="&#x2044;" horiz-adv-x="179" 
d="M257 780l68 -34l-404 -777l-69 35z" />
    <glyph glyph-name="yen" unicode="&#xa5;" 
d="M288 492l139 262h171l-174 -305h134v-66h-175l-21 -37v-36h196v-66h-196v-244h-147v244h-196v66h196v36l-24 37h-172v66h134l-174 305h171z" />
    <glyph glyph-name="florin" unicode="&#x192;" 
d="M381 504h107l-10 -72h-108l-47 -291c-28 -172 -67 -307 -271 -307l-56 4l20 126l33 -2c43 0 76 10 98 49c19 34 32 111 38 151l43 270h-60l10 72h62l19 115c20 119 68 212 203 212c31 0 61 -6 88 -21l-20 -121c-19 11 -37 17 -59 17c-59 0 -69 -76 -76 -119z" />
    <glyph glyph-name="section" unicode="&#xa7;" horiz-adv-x="577" 
d="M236 342l139 -85c23 19 37 49 37 78c0 46 -32 62 -66 83l-141 87c-23 -17 -40 -47 -40 -76c0 -50 34 -65 71 -87zM482 684h-125c-5 40 -32 73 -76 73c-39 0 -62 -38 -62 -74c0 -51 43 -73 82 -95l107 -60c73 -41 129 -78 129 -170c0 -59 -27 -120 -70 -160
c27 -32 40 -82 40 -123c0 -119 -89 -207 -222 -207c-135 0 -241 87 -234 231h138c-1 -57 35 -118 98 -118c49 0 81 42 81 89c0 52 -44 74 -84 96l-133 72c-68 37 -111 78 -111 161c0 65 29 119 74 163c-21 31 -33 74 -33 112c0 113 90 186 200 186c107 0 196 -64 201 -176z
" />
    <glyph glyph-name="currency" unicode="&#xa4;" 
d="M289 550c64 0 110 -19 141 -44l62 57l74 -74l-60 -55c22 -33 38 -77 38 -134s-16 -101 -38 -134l60 -55l-74 -74l-62 57c-31 -25 -77 -44 -141 -44s-110 19 -141 44l-62 -57l-74 74l60 55c-22 33 -38 77 -38 134s16 101 38 134l-60 55l74 74l62 -57c31 25 77 44 141 44z
M289 146c89 0 159 68 159 154c0 91 -67 154 -159 154s-159 -63 -159 -154c0 -86 69 -154 159 -154z" />
    <glyph glyph-name="quotesingle" unicode="'" horiz-adv-x="296" 
d="M88 754h120l-18 -328h-84z" />
    <glyph glyph-name="quotedblleft" unicode="&#x201c;" horiz-adv-x="488" 
d="M350 459l-129 14l144 301l93 -11zM159 459l-129 14l144 301l93 -11z" />
    <glyph glyph-name="guillemotleft" unicode="&#xab;" horiz-adv-x="514" 
d="M339 320l125 -182l-87 -58l-159 240l159 243l86 -56zM139 320l125 -182l-87 -58l-159 240l159 243l86 -56z" />
    <glyph glyph-name="guilsinglleft" unicode="&#x2039;" horiz-adv-x="314" 
d="M139 320l125 -182l-87 -58l-159 240l159 243l86 -56z" />
    <glyph glyph-name="guilsinglright" unicode="&#x203a;" horiz-adv-x="314" 
d="M50 138l125 182l-124 187l86 56l159 -243l-159 -240z" />
    <glyph glyph-name="fi" unicode="&#xfb01;" horiz-adv-x="544" 
d="M195 373v-373h-140v373h-47v118h47v144c0 120 50 225 185 225c23 0 46 -5 67 -16v-125c-18 9 -36 17 -57 17c-62 0 -55 -81 -55 -121v-124h112v-118h-112zM487 491v-491h-140v491h140zM417 780c46 0 83 -38 83 -83c0 -46 -37 -83 -83 -83s-83 37 -83 83c0 45 37 83 83 83
z" />
    <glyph glyph-name="fl" unicode="&#xfb02;" horiz-adv-x="543" 
d="M493 848v-848h-140v848h140zM195 373v-373h-140v373h-47v118h47v144c0 120 50 225 185 225c23 0 46 -5 67 -16v-125c-18 9 -36 17 -57 17c-62 0 -55 -81 -55 -121v-124h112v-118h-112z" />
    <glyph glyph-name="endash" unicode="&#x2013;" horiz-adv-x="500" 
d="M0 378h500v-115h-500v115z" />
    <glyph glyph-name="dagger" unicode="&#x2020;" horiz-adv-x="577" 
d="M223 848h131v-240h162v-116h-162v-589h-131v589h-162v116h162v240z" />
    <glyph glyph-name="daggerdbl" unicode="&#x2021;" horiz-adv-x="577" 
d="M223 848h131v-211h162v-116h-162v-133h162v-116h-162v-368h-131v368h-162v116h162v133h-162v116h162v211z" />
    <glyph glyph-name="periodcentered" unicode="&#xb7;" horiz-adv-x="289" 
d="M145 345c49 0 89 -39 89 -88s-40 -90 -89 -90s-89 41 -89 90s40 88 89 88z" />
    <glyph glyph-name="paragraph" unicode="&#xb6;" horiz-adv-x="577" 
d="M558 754v-94h-61v-813h-104v813h-62v-813h-104v436c-113 0 -196 79 -206 214c-9 121 83 257 215 257h322z" />
    <glyph glyph-name="bullet" unicode="&#x2022;" horiz-adv-x="577" 
d="M288 189c-103 0 -188 83 -188 188c-1 105 83 189 188 189s189 -84 189 -189s-86 -188 -189 -188z" />
    <glyph glyph-name="quotesinglbase" unicode="&#x201a;" horiz-adv-x="296" 
d="M139 156l128 -14l-144 -301l-93 11z" />
    <glyph glyph-name="quotedblbase" unicode="&#x201e;" horiz-adv-x="488" 
d="M139 156l128 -14l-144 -301l-93 11zM330 156l128 -14l-144 -301l-93 11z" />
    <glyph glyph-name="quotedblright" unicode="&#x201d;" horiz-adv-x="488" 
d="M139 774l128 -15l-144 -300l-93 11zM330 774l128 -15l-144 -300l-93 11z" />
    <glyph glyph-name="guillemotright" unicode="&#xbb;" horiz-adv-x="514" 
d="M50 138l125 182l-124 187l86 56l159 -243l-159 -240zM250 138l125 182l-124 187l86 56l159 -243l-159 -240z" />
    <glyph glyph-name="ellipsis" unicode="&#x2026;" horiz-adv-x="1000" 
d="M167 161c49 0 89 -39 89 -88s-40 -90 -89 -90s-89 41 -89 90s40 88 89 88zM500 158c49 0 89 -39 89 -88s-40 -90 -89 -90s-89 41 -89 90s40 88 89 88zM833 158c49 0 89 -39 89 -88s-40 -90 -89 -90s-89 41 -89 90s40 88 89 88z" />
    <glyph glyph-name="perthousand" unicode="&#x2030;" horiz-adv-x="1200" 
d="M202 774c102 0 179 -75 179 -179c0 -103 -76 -178 -179 -178s-179 75 -179 178c0 104 77 179 179 179zM202 693c-50 0 -80 -52 -80 -98s30 -97 80 -97s80 51 80 97s-30 98 -80 98zM604 337c102 0 179 -75 179 -179c0 -103 -76 -178 -179 -178s-179 75 -179 178
c0 104 77 179 179 179zM604 256c-50 0 -80 -52 -80 -98s30 -97 80 -97s80 51 80 97s-30 98 -80 98zM999 337c102 0 179 -75 179 -179c0 -103 -76 -178 -179 -178s-179 75 -179 178c0 104 77 179 179 179zM999 256c-50 0 -80 -52 -80 -98s30 -97 80 -97s80 51 80 97
s-30 98 -80 98zM570 780l68 -34l-404 -777l-69 35z" />
    <glyph glyph-name="questiondown" unicode="&#xbf;" horiz-adv-x="487" 
d="M339 253v-199c-12 3 -24 4 -36 4c-67 0 -128 -40 -128 -112c0 -40 23 -88 69 -88c45 0 67 42 67 82v12h146c6 -121 -91 -216 -212 -216c-123 0 -215 92 -215 215c0 98 65 184 161 206l8 96h140zM267 514c49 0 89 -39 89 -88s-40 -90 -89 -90s-89 41 -89 90s40 88 89 88z
" />
    <glyph glyph-name="grave" unicode="`" horiz-adv-x="380" 
d="M79 712l102 62l120 -168l-71 -44z" />
    <glyph glyph-name="acute" unicode="&#xb4;" horiz-adv-x="380" 
d="M199 774l102 -62l-151 -150l-71 44z" />
    <glyph glyph-name="circumflex" unicode="&#x2c6;" horiz-adv-x="400" 
d="M30 620l170 154l170 -154l-60 -66l-110 104l-110 -104z" />
    <glyph glyph-name="tilde" unicode="&#x2dc;" horiz-adv-x="400" 
d="M92 604h-82c5 58 40 139 109 139c24 0 52 -11 77 -21c26 -10 49 -22 65 -22c28 0 36 20 47 42h83c-11 -64 -46 -141 -121 -141c-21 0 -45 11 -69 22s-47 22 -66 22c-25 0 -37 -20 -43 -41z" />
    <glyph glyph-name="macron" unicode="&#xaf;" horiz-adv-x="400" 
d="M9 754h382v-88h-382v88z" />
    <glyph glyph-name="breve" unicode="&#x2d8;" horiz-adv-x="400" 
d="M27 754h98c5 -20 12 -38 24 -50c13 -13 29 -21 51 -21c44 0 66 31 75 71h98c-9 -93 -80 -156 -173 -156s-164 63 -173 156z" />
    <glyph glyph-name="dotaccent" unicode="&#x2d9;" horiz-adv-x="380" 
d="M190 762c44 0 80 -36 80 -80s-36 -80 -80 -80s-80 36 -80 80s36 80 80 80z" />
    <glyph glyph-name="dieresis" unicode="&#xa8;" horiz-adv-x="400" 
d="M95 762c44 0 80 -36 80 -80s-36 -80 -80 -80s-80 36 -80 80s36 80 80 80zM306 762c44 0 80 -36 80 -80s-36 -80 -80 -80s-80 36 -80 80s36 80 80 80z" />
    <glyph glyph-name="ring" unicode="&#x2da;" horiz-adv-x="380" 
d="M190 774c55 0 100 -45 100 -100c0 -56 -45 -101 -100 -101s-100 45 -100 101c0 55 45 100 100 100zM190 715c-23 0 -41 -19 -41 -41c0 -23 18 -42 41 -42s41 19 41 42c0 22 -18 41 -41 41z" />
    <glyph glyph-name="cedilla" unicode="&#xb8;" horiz-adv-x="380" 
d="M193 -20l92 -47l-116 -139l-74 38z" />
    <glyph glyph-name="hungarumlaut" unicode="&#x2dd;" horiz-adv-x="420" 
d="M125 774l102 -62l-151 -150l-71 44zM314 774l102 -62l-151 -150l-71 44z" />
    <glyph glyph-name="ogonek" unicode="&#x2db;" horiz-adv-x="380" 
d="M173 -20h70v-2c-26 -17 -54 -46 -54 -80c0 -25 18 -46 44 -46c18 0 33 6 48 16l-14 -75c-19 -13 -47 -18 -69 -18c-51 0 -99 32 -99 86c0 50 35 93 74 119z" />
    <glyph glyph-name="caron" unicode="&#x2c7;" horiz-adv-x="400" 
d="M21 709l60 65l118 -104l119 104l60 -65l-179 -155z" />
    <glyph glyph-name="emdash" unicode="&#x2014;" horiz-adv-x="1000" 
d="M130 378h740v-115h-740v115z" />
    <glyph glyph-name="AE" unicode="&#xc6;" horiz-adv-x="921" 
d="M467 159h-261l-59 -159h-156l293 754h372l46 -128h-250l61 -167h246l46 -128h-246l75 -203h250l45 -128h-403zM427 279l-93 256h-2l-83 -256h178z" />
    <glyph glyph-name="ordfeminine" unicode="&#xaa;" horiz-adv-x="339" 
d="M332 764v-294h-89v27h-2c-19 -24 -53 -37 -86 -37c-94 0 -147 79 -147 158c0 78 54 156 146 156c33 0 67 -13 89 -37v27h89zM176 534c47 0 76 44 76 83c0 40 -29 83 -76 83s-76 -43 -76 -83c0 -39 29 -83 76 -83z" />
    <glyph glyph-name="Lslash" unicode="&#x141;" horiz-adv-x="434" 
d="M14 254v124l72 50v326h147v-230l106 73v-126l-106 -72v-271h208v-128h-355v303z" />
    <glyph glyph-name="Oslash" unicode="&#xd8;" horiz-adv-x="782" 
d="M584 504l-321 -338c33 -26 75 -41 128 -41c163 0 221 143 221 259c0 41 -9 83 -28 120zM199 247l320 339c-34 27 -77 43 -128 43c-139 0 -221 -123 -221 -245c0 -45 9 -94 29 -137zM-4 33l94 99c-47 67 -72 153 -72 246c0 224 148 396 373 396c91 0 170 -28 232 -78
l86 90l77 -68l-93 -98c46 -66 71 -150 71 -242c0 -222 -143 -398 -373 -398c-92 0 -171 29 -231 77l-90 -95z" />
    <glyph glyph-name="OE" unicode="&#x152;" horiz-adv-x="1039" 
d="M757 626v-167h227v-128h-227v-203h238v-128h-384v85c-60 -69 -140 -105 -231 -105c-209 0 -362 198 -362 395c0 202 150 399 362 399c88 0 175 -37 229 -105h2v85h384v-128h-238zM377 629c-134 0 -219 -128 -219 -254c0 -123 85 -250 219 -250c135 0 221 127 221 250
c0 126 -86 254 -221 254z" />
    <glyph glyph-name="ordmasculine" unicode="&#xba;" horiz-adv-x="339" 
d="M170 774c99 0 168 -66 168 -157c0 -92 -68 -157 -168 -157s-168 65 -168 157c0 91 69 157 168 157zM170 700c-47 0 -75 -42 -75 -82s28 -84 75 -84s75 44 75 84s-28 82 -75 82z" />
    <glyph glyph-name="ae" unicode="&#xe6;" horiz-adv-x="792" 
d="M456 310h187c-7 50 -39 99 -93 99c-56 0 -87 -48 -94 -99zM222 217c-40 0 -77 -24 -77 -67c0 -46 42 -67 83 -67c38 0 83 26 83 68c0 46 -50 66 -89 66zM777 223h-323c0 -62 24 -132 97 -132c46 0 75 28 94 67l129 -21c-34 -98 -120 -153 -223 -153
c-70 0 -138 24 -175 81c-41 -53 -109 -81 -175 -81c-99 0 -190 51 -190 161c0 107 90 161 187 161c39 0 79 -8 114 -27v16c0 72 -45 105 -113 105c-41 0 -82 -8 -120 -22v109c44 11 91 20 137 20c59 0 129 -21 161 -75c39 50 103 75 167 75c161 0 233 -119 233 -267v-17z
" />
    <glyph glyph-name="dotlessi" unicode="&#x131;" horiz-adv-x="253" 
d="M197 491v-491h-140v491h140z" />
    <glyph glyph-name="lslash" unicode="&#x142;" horiz-adv-x="283" 
d="M72 0v374l-74 -50v106l74 50v368h140v-279l73 49v-106l-73 -49v-463h-140z" />
    <glyph glyph-name="oslash" unicode="&#xf8;" horiz-adv-x="564" 
d="M172 181l175 172c-20 19 -44 30 -73 30c-72 0 -116 -70 -116 -138c0 -22 5 -44 14 -64zM382 295l-169 -167c16 -12 37 -20 61 -20c72 0 116 71 116 137c0 17 -3 34 -8 50zM-6 10l73 72c-33 43 -51 99 -51 163c0 153 105 262 258 262c66 0 123 -20 166 -55l75 74l55 -50
l-80 -80c27 -42 42 -94 42 -151c0 -152 -104 -261 -258 -261c-60 0 -113 17 -153 46l-72 -71z" />
    <glyph glyph-name="oe" unicode="&#x153;" horiz-adv-x="873" 
d="M535 310h187c-7 50 -39 99 -93 99c-56 0 -87 -48 -94 -99zM272 383c-72 0 -116 -70 -116 -138c0 -66 44 -137 116 -137s116 71 116 137c0 68 -44 138 -116 138zM859 223h-323c0 -62 24 -132 97 -132c46 0 75 28 94 67l129 -21c-34 -98 -120 -153 -223 -153
c-76 0 -141 25 -182 85c-44 -59 -111 -85 -179 -85c-154 0 -258 109 -258 261c0 153 105 262 258 262c67 0 131 -27 179 -82c41 57 106 82 175 82c161 0 233 -119 233 -267v-17z" />
    <glyph glyph-name="germandbls" unicode="&#xdf;" horiz-adv-x="561" 
d="M50 0v604c0 149 60 256 222 256c130 0 220 -87 220 -218c0 -67 -23 -120 -76 -162c91 -39 130 -132 130 -226c0 -164 -111 -270 -274 -270h-20v122c88 -3 147 69 147 154c0 88 -58 150 -147 151v118c68 -1 106 46 106 111c0 52 -32 98 -87 98c-93 0 -81 -130 -81 -192
v-546h-140z" />
    <glyph glyph-name="onesuperior" unicode="&#xb9;" horiz-adv-x="346" 
d="M157 678h-64v76h160v-452h-96v376z" />
    <glyph glyph-name="logicalnot" unicode="&#xac;" 
d="M427 142v173h-394v118h512v-291h-118z" />
    <glyph glyph-name="mu" unicode="&#xb5;" horiz-adv-x="535" 
d="M47 491h140v-266c0 -56 9 -123 80 -123s80 67 80 123v266h140v-289c0 -143 -74 -218 -220 -218c-39 0 -59 16 -80 30v-276h-140v753z" />
    <glyph glyph-name="trademark" unicode="&#x2122;" horiz-adv-x="1000" 
d="M382 754v-75h-127v-346h-86v346h-127v75h340zM958 754v-421h-86v335h-2l-122 -335h-83l-118 335h-2v-335h-86v421h149l98 -275h2l102 275h148z" />
    <glyph glyph-name="Eth" unicode="&#xd0;" horiz-adv-x="646" 
d="M54 0v337h-72v120h72v297h210c218 0 364 -163 364 -378c0 -212 -150 -376 -365 -376h-209zM201 626v-169h113v-120h-113v-209h24c181 0 251 100 251 249c0 164 -84 249 -251 249h-24z" />
    <glyph glyph-name="onehalf" unicode="&#xbd;" horiz-adv-x="867" 
d="M537 780l68 -34l-404 -777l-69 35zM104 678h-64v76h160v-452h-96v376zM667 77h160v-77h-330l125 145c34 40 106 118 106 169c0 42 -22 74 -63 74c-43 0 -62 -44 -60 -78h-101c6 87 60 154 161 154c89 0 159 -63 159 -145c0 -67 -40 -117 -85 -165z" />
    <glyph glyph-name="plusminus" unicode="&#xb1;" 
d="M33 0v118h512v-118h-512zM230 630h118v-172h197v-118h-197v-172h-118v172h-197v118h197v172z" />
    <glyph glyph-name="Thorn" unicode="&#xde;" horiz-adv-x="528" 
d="M201 162v-162h-147v754h147v-120h53c158 0 261 -63 261 -234c0 -160 -87 -238 -241 -238h-73zM201 512v-228h30c87 0 134 19 134 117c0 97 -56 111 -138 111h-26z" />
    <glyph glyph-name="onequarter" unicode="&#xbc;" horiz-adv-x="867" 
d="M775 151h52v-71h-52v-80h-90v80h-215v39l218 342h87v-310zM685 151v180h-2l-103 -180h105zM583 780l68 -34l-404 -777l-69 35zM104 678h-64v76h160v-452h-96v376z" />
    <glyph glyph-name="divide" unicode="&#xf7;" 
d="M289 146c46 0 83 -38 83 -83c0 -46 -37 -83 -83 -83s-83 37 -83 83c0 45 37 83 83 83zM289 532c46 0 83 -38 83 -83c0 -46 -37 -83 -83 -83s-83 37 -83 83c0 45 37 83 83 83zM33 197v118h512v-118h-512z" />
    <glyph glyph-name="brokenbar" unicode="&#xa6;" horiz-adv-x="538" 
d="M328 161v-250h-118v250h118zM328 661v-250h-118v250h118z" />
    <glyph glyph-name="degree" unicode="&#xb0;" horiz-adv-x="400" 
d="M350 624c0 -83 -68 -150 -150 -150c-83 0 -150 67 -150 150c-1 82 67 150 150 150c82 0 150 -68 150 -150zM199 706c-45 0 -82 -37 -81 -82c1 -46 37 -82 83 -82c45 0 81 36 81 82c0 45 -37 82 -83 82z" />
    <glyph glyph-name="thorn" unicode="&#xfe;" horiz-adv-x="565" 
d="M190 848v-402c32 38 84 61 136 61c139 0 224 -130 224 -259c0 -134 -82 -264 -227 -264c-50 0 -103 22 -131 62h-2v-308h-140v1110h140zM292 108c72 0 116 72 116 138s-44 137 -116 137s-116 -71 -116 -137s44 -138 116 -138z" />
    <glyph glyph-name="threequarters" unicode="&#xbe;" horiz-adv-x="867" 
d="M775 151h52v-71h-52v-80h-90v80h-215v39l218 342h87v-310zM685 151v180h-2l-103 -180h105zM635 780l68 -34l-404 -777l-69 35zM149 644h-91c8 78 62 130 150 130c84 0 141 -49 141 -127c0 -35 -14 -74 -47 -95c45 -18 63 -69 63 -110c0 -89 -69 -144 -163 -144
c-90 0 -157 62 -162 143h96c2 -36 28 -66 70 -66c43 0 66 37 66 72c0 36 -26 75 -69 72l-18 -1v63h11c40 0 62 25 62 63c0 30 -20 57 -56 57c-34 0 -52 -29 -53 -57z" />
    <glyph glyph-name="twosuperior" unicode="&#xb2;" horiz-adv-x="346" 
d="M178 379h160v-77h-330l125 145c34 40 106 118 106 169c0 42 -22 74 -63 74c-43 0 -62 -44 -60 -78h-101c6 87 60 154 161 154c89 0 159 -63 159 -145c0 -67 -40 -117 -85 -165z" />
    <glyph glyph-name="registered" unicode="&#xae;" horiz-adv-x="800" 
d="M400 -20c-220 0 -394 176 -394 397s174 397 394 397s394 -176 394 -397s-174 -397 -394 -397zM400 688c-170 0 -308 -133 -308 -311c0 -177 138 -311 308 -311s308 134 308 311c0 178 -138 311 -308 311zM483 337l100 -164h-94l-96 164h-72v-164h-86v412h200
c95 0 160 -17 160 -126c0 -76 -39 -117 -112 -122zM321 411h116c46 0 74 10 74 55s-55 45 -95 45h-95v-100z" />
    <glyph glyph-name="minus" unicode="&#x2212;" 
d="M33 197v118h512v-118h-512z" />
    <glyph glyph-name="eth" unicode="&#xf0;" horiz-adv-x="548" 
d="M73 786l99 75c31 -24 70 -57 106 -92l120 76l60 -60l-120 -77c73 -81 194 -217 194 -447c0 -219 -157 -277 -258 -277c-139 0 -258 97 -258 262c0 157 109 257 242 257c39 0 60 -8 80 -15c-26 52 -52 93 -106 152l-120 -77l-60 61l120 76c-35 34 -63 58 -99 86zM274 383
c-72 0 -116 -70 -116 -138c0 -66 44 -137 116 -137s116 71 116 137c0 68 -44 138 -116 138z" />
    <glyph glyph-name="multiply" unicode="&#xd7;" 
d="M33 428l84 84l173 -173l171 173l84 -84l-172 -172l172 -172l-84 -84l-172 173l-172 -173l-84 84l173 172z" />
    <glyph glyph-name="threesuperior" unicode="&#xb3;" horiz-adv-x="346" 
d="M120 644h-91c8 78 62 130 150 130c84 0 141 -49 141 -127c0 -35 -14 -74 -47 -95c45 -18 63 -69 63 -110c0 -89 -69 -144 -163 -144c-90 0 -157 62 -162 143h96c2 -36 28 -66 70 -66c43 0 66 37 66 72c0 36 -26 75 -69 72l-18 -1v63h11c40 0 62 25 62 63
c0 30 -20 57 -56 57c-34 0 -52 -29 -53 -57z" />
    <glyph glyph-name="copyright" unicode="&#xa9;" horiz-adv-x="800" 
d="M400 -20c-220 0 -394 176 -394 397s174 397 394 397s394 -176 394 -397s-174 -397 -394 -397zM400 688c-170 0 -308 -133 -308 -311c0 -177 138 -311 308 -311s308 134 308 311c0 178 -138 311 -308 311zM602 459h-88c-12 53 -66 77 -114 77c-82 0 -137 -78 -137 -156
s55 -156 137 -156c48 0 102 24 114 77h88c-18 -94 -92 -163 -202 -163c-129 0 -223 111 -223 242s94 242 223 242c110 0 184 -69 202 -163z" />
    <glyph glyph-name="Aacute" unicode="&#xc1;" horiz-adv-x="676" 
d="M470 159h-262l-62 -159h-155l294 774h114l286 -774h-157zM429 279l-94 274h-2l-83 -274h179zM377 1002l102 -62l-151 -150l-71 44z" />
    <glyph glyph-name="Acircumflex" unicode="&#xc2;" horiz-adv-x="676" 
d="M470 159h-262l-62 -159h-155l294 774h114l286 -774h-157zM429 279l-94 274h-2l-83 -274h179zM168 848l170 154l170 -154l-60 -66l-110 104l-110 -104z" />
    <glyph glyph-name="Adieresis" unicode="&#xc4;" horiz-adv-x="676" 
d="M470 159h-262l-62 -159h-155l294 774h114l286 -774h-157zM429 279l-94 274h-2l-83 -274h179zM233 990c44 0 80 -36 80 -80s-36 -80 -80 -80s-80 36 -80 80s36 80 80 80zM444 990c44 0 80 -36 80 -80s-36 -80 -80 -80s-80 36 -80 80s36 80 80 80z" />
    <glyph glyph-name="Agrave" unicode="&#xc0;" horiz-adv-x="676" 
d="M470 159h-262l-62 -159h-155l294 774h114l286 -774h-157zM429 279l-94 274h-2l-83 -274h179zM202 940l102 62l120 -168l-71 -44z" />
    <glyph glyph-name="Aring" unicode="&#xc5;" horiz-adv-x="676" 
d="M470 159h-262l-62 -159h-155l294 774h114l286 -774h-157zM429 279l-94 274h-2l-83 -274h179zM338 1002c55 0 100 -45 100 -100c0 -56 -45 -101 -100 -101s-100 45 -100 101c0 55 45 100 100 100zM338 943c-23 0 -41 -19 -41 -41c0 -23 18 -42 41 -42s41 19 41 42
c0 22 -18 41 -41 41z" />
    <glyph glyph-name="Atilde" unicode="&#xc3;" horiz-adv-x="676" 
d="M470 159h-262l-62 -159h-155l294 774h114l286 -774h-157zM429 279l-94 274h-2l-83 -274h179zM230 832h-82c5 58 40 139 109 139c24 0 52 -11 77 -21c26 -10 49 -22 65 -22c28 0 36 20 47 42h83c-11 -64 -46 -141 -121 -141c-21 0 -45 11 -69 22s-47 22 -66 22
c-25 0 -37 -20 -43 -41z" />
    <glyph glyph-name="Ccedilla" unicode="&#xc7;" horiz-adv-x="601" 
d="M558 730v-176c-41 50 -103 80 -166 80c-141 0 -222 -130 -222 -260c0 -127 84 -254 221 -254c63 0 126 33 167 80v-175c-55 -26 -110 -45 -171 -45c-212 0 -369 183 -369 391c0 214 151 403 372 403c59 0 117 -16 168 -44zM304 -20l92 -47l-116 -139l-74 38z" />
    <glyph glyph-name="Eacute" unicode="&#xc9;" horiz-adv-x="488" 
d="M444 626h-243v-166h234v-128h-234v-204h243v-128h-390v754h390v-128zM283 1002l102 -62l-151 -150l-71 44z" />
    <glyph glyph-name="Ecircumflex" unicode="&#xca;" horiz-adv-x="488" 
d="M444 626h-243v-166h234v-128h-234v-204h243v-128h-390v754h390v-128zM74 848l170 154l170 -154l-60 -66l-110 104l-110 -104z" />
    <glyph glyph-name="Edieresis" unicode="&#xcb;" horiz-adv-x="488" 
d="M444 626h-243v-166h234v-128h-234v-204h243v-128h-390v754h390v-128zM139 990c44 0 80 -36 80 -80s-36 -80 -80 -80s-80 36 -80 80s36 80 80 80zM350 990c44 0 80 -36 80 -80s-36 -80 -80 -80s-80 36 -80 80s36 80 80 80z" />
    <glyph glyph-name="Egrave" unicode="&#xc8;" horiz-adv-x="488" 
d="M444 626h-243v-166h234v-128h-234v-204h243v-128h-390v754h390v-128zM108 940l102 62l120 -168l-71 -44z" />
    <glyph glyph-name="Iacute" unicode="&#xcd;" horiz-adv-x="254" 
d="M201 754v-754h-147v754h147zM151 1002l102 -62l-151 -150l-71 44z" />
    <glyph glyph-name="Icircumflex" unicode="&#xce;" horiz-adv-x="254" 
d="M201 754v-754h-147v754h147zM-43 848l170 154l170 -154l-60 -66l-110 104l-110 -104z" />
    <glyph glyph-name="Idieresis" unicode="&#xcf;" horiz-adv-x="254" 
d="M201 754v-754h-147v754h147zM22 990c44 0 80 -36 80 -80s-36 -80 -80 -80s-80 36 -80 80s36 80 80 80zM233 990c44 0 80 -36 80 -80s-36 -80 -80 -80s-80 36 -80 80s36 80 80 80z" />
    <glyph glyph-name="Igrave" unicode="&#xcc;" horiz-adv-x="254" 
d="M201 754v-754h-147v754h147zM1 940l102 62l120 -168l-71 -44z" />
    <glyph glyph-name="Ntilde" unicode="&#xd1;" horiz-adv-x="759" 
d="M54 0v774h106l397 -527h2v507h147v-769h-106l-397 527h-2v-512h-147zM272 832h-82c5 58 40 139 109 139c24 0 52 -11 77 -21c26 -10 49 -22 65 -22c28 0 36 20 47 42h83c-11 -64 -46 -141 -121 -141c-21 0 -45 11 -69 22s-47 22 -66 22c-25 0 -37 -20 -43 -41z" />
    <glyph glyph-name="Oacute" unicode="&#xd3;" horiz-adv-x="782" 
d="M764 378c0 -222 -143 -398 -373 -398s-373 176 -373 398c0 224 148 396 373 396s373 -172 373 -396zM612 384c0 122 -82 245 -221 245s-221 -123 -221 -245c0 -116 58 -259 221 -259s221 143 221 259zM430 1002l102 -62l-151 -150l-71 44z" />
    <glyph glyph-name="Ocircumflex" unicode="&#xd4;" horiz-adv-x="782" 
d="M764 378c0 -222 -143 -398 -373 -398s-373 176 -373 398c0 224 148 396 373 396s373 -172 373 -396zM612 384c0 122 -82 245 -221 245s-221 -123 -221 -245c0 -116 58 -259 221 -259s221 143 221 259zM221 848l170 154l170 -154l-60 -66l-110 104l-110 -104z" />
    <glyph glyph-name="Odieresis" unicode="&#xd6;" horiz-adv-x="782" 
d="M764 378c0 -222 -143 -398 -373 -398s-373 176 -373 398c0 224 148 396 373 396s373 -172 373 -396zM612 384c0 122 -82 245 -221 245s-221 -123 -221 -245c0 -116 58 -259 221 -259s221 143 221 259zM286 990c44 0 80 -36 80 -80s-36 -80 -80 -80s-80 36 -80 80
s36 80 80 80zM497 990c44 0 80 -36 80 -80s-36 -80 -80 -80s-80 36 -80 80s36 80 80 80z" />
    <glyph glyph-name="Ograve" unicode="&#xd2;" horiz-adv-x="782" 
d="M764 378c0 -222 -143 -398 -373 -398s-373 176 -373 398c0 224 148 396 373 396s373 -172 373 -396zM612 384c0 122 -82 245 -221 245s-221 -123 -221 -245c0 -116 58 -259 221 -259s221 143 221 259zM255 940l102 62l120 -168l-71 -44z" />
    <glyph glyph-name="Otilde" unicode="&#xd5;" horiz-adv-x="782" 
d="M764 378c0 -222 -143 -398 -373 -398s-373 176 -373 398c0 224 148 396 373 396s373 -172 373 -396zM612 384c0 122 -82 245 -221 245s-221 -123 -221 -245c0 -116 58 -259 221 -259s221 143 221 259zM283 832h-82c5 58 40 139 109 139c24 0 52 -11 77 -21
c26 -10 49 -22 65 -22c28 0 36 20 47 42h83c-11 -64 -46 -141 -121 -141c-21 0 -45 11 -69 22s-47 22 -66 22c-25 0 -37 -20 -43 -41z" />
    <glyph glyph-name="Scaron" unicode="&#x160;" horiz-adv-x="526" 
d="M478 690l-69 -102c-28 38 -64 62 -113 62c-47 0 -92 -36 -92 -85c0 -127 299 -74 299 -327c0 -151 -94 -258 -248 -258c-104 0 -180 60 -232 147l95 93c20 -58 73 -110 136 -110c60 0 97 51 97 109c0 78 -72 100 -131 123c-97 40 -168 89 -168 206c0 125 93 226 220 226
c67 0 160 -33 206 -84zM99 937l60 65l118 -104l119 104l60 -65l-179 -155z" />
    <glyph glyph-name="Uacute" unicode="&#xda;" horiz-adv-x="660" 
d="M50 303v451h147v-422c0 -93 8 -224 133 -224s133 131 133 224v422h147v-451c0 -184 -78 -323 -280 -323s-280 139 -280 323zM389 1002l102 -62l-151 -150l-71 44z" />
    <glyph glyph-name="Ucircumflex" unicode="&#xdb;" horiz-adv-x="660" 
d="M50 303v451h147v-422c0 -93 8 -224 133 -224s133 131 133 224v422h147v-451c0 -184 -78 -323 -280 -323s-280 139 -280 323zM160 848l170 154l170 -154l-60 -66l-110 104l-110 -104z" />
    <glyph glyph-name="Udieresis" unicode="&#xdc;" horiz-adv-x="660" 
d="M50 303v451h147v-422c0 -93 8 -224 133 -224s133 131 133 224v422h147v-451c0 -184 -78 -323 -280 -323s-280 139 -280 323zM233 990c44 0 80 -36 80 -80s-36 -80 -80 -80s-80 36 -80 80s36 80 80 80zM444 990c44 0 80 -36 80 -80s-36 -80 -80 -80s-80 36 -80 80
s36 80 80 80z" />
    <glyph glyph-name="Ugrave" unicode="&#xd9;" horiz-adv-x="660" 
d="M50 303v451h147v-422c0 -93 8 -224 133 -224s133 131 133 224v422h147v-451c0 -184 -78 -323 -280 -323s-280 139 -280 323zM169 940l102 62l120 -168l-71 -44z" />
    <glyph glyph-name="Yacute" unicode="&#xdd;" horiz-adv-x="587" 
d="M218 346l-234 408h171l132 -262l144 262h172l-238 -408v-346h-147v346zM368 1002l102 -62l-151 -150l-71 44z" />
    <glyph glyph-name="Ydieresis" unicode="&#x178;" horiz-adv-x="587" 
d="M218 346l-234 408h171l132 -262l144 262h172l-238 -408v-346h-147v346zM189 990c44 0 80 -36 80 -80s-36 -80 -80 -80s-80 36 -80 80s36 80 80 80zM400 990c44 0 80 -36 80 -80s-36 -80 -80 -80s-80 36 -80 80s36 80 80 80z" />
    <glyph glyph-name="Zcaron" unicode="&#x17d;" horiz-adv-x="575" 
d="M239 128h313v-128h-547l332 626h-281v128h514zM124 937l60 65l118 -104l119 104l60 -65l-179 -155z" />
    <glyph glyph-name="aacute" unicode="&#xe1;" horiz-adv-x="565" 
d="M514 491v-491h-138v45h-2c-30 -39 -82 -61 -133 -61c-144 0 -226 131 -226 264c0 130 83 259 224 259c51 0 103 -22 137 -62v46h138zM273 108c72 0 117 72 117 138s-45 137 -117 137s-116 -71 -116 -137s44 -138 116 -138zM332 774l102 -62l-151 -150l-71 44z" />
    <glyph glyph-name="acircumflex" unicode="&#xe2;" horiz-adv-x="565" 
d="M514 491v-491h-138v45h-2c-30 -39 -82 -61 -133 -61c-144 0 -226 131 -226 264c0 130 83 259 224 259c51 0 103 -22 137 -62v46h138zM273 108c72 0 117 72 117 138s-45 137 -117 137s-116 -71 -116 -137s44 -138 116 -138zM113 620l170 154l170 -154l-60 -66l-110 104
l-110 -104z" />
    <glyph glyph-name="adieresis" unicode="&#xe4;" horiz-adv-x="565" 
d="M514 491v-491h-138v45h-2c-30 -39 -82 -61 -133 -61c-144 0 -226 131 -226 264c0 130 83 259 224 259c51 0 103 -22 137 -62v46h138zM273 108c72 0 117 72 117 138s-45 137 -117 137s-116 -71 -116 -137s44 -138 116 -138zM178 762c44 0 80 -36 80 -80s-36 -80 -80 -80
s-80 36 -80 80s36 80 80 80zM389 762c44 0 80 -36 80 -80s-36 -80 -80 -80s-80 36 -80 80s36 80 80 80z" />
    <glyph glyph-name="agrave" unicode="&#xe0;" horiz-adv-x="565" 
d="M514 491v-491h-138v45h-2c-30 -39 -82 -61 -133 -61c-144 0 -226 131 -226 264c0 130 83 259 224 259c51 0 103 -22 137 -62v46h138zM273 108c72 0 117 72 117 138s-45 137 -117 137s-116 -71 -116 -137s44 -138 116 -138zM132 712l102 62l120 -168l-71 -44z" />
    <glyph glyph-name="aring" unicode="&#xe5;" horiz-adv-x="565" 
d="M514 491v-491h-138v45h-2c-30 -39 -82 -61 -133 -61c-144 0 -226 131 -226 264c0 130 83 259 224 259c51 0 103 -22 137 -62v46h138zM273 108c72 0 117 72 117 138s-45 137 -117 137s-116 -71 -116 -137s44 -138 116 -138zM283 774c55 0 100 -45 100 -100
c0 -56 -45 -101 -100 -101s-100 45 -100 101c0 55 45 100 100 100zM283 715c-23 0 -41 -19 -41 -41c0 -23 18 -42 41 -42s41 19 41 42c0 22 -18 41 -41 41z" />
    <glyph glyph-name="atilde" unicode="&#xe3;" horiz-adv-x="565" 
d="M514 491v-491h-138v45h-2c-30 -39 -82 -61 -133 -61c-144 0 -226 131 -226 264c0 130 83 259 224 259c51 0 103 -22 137 -62v46h138zM273 108c72 0 117 72 117 138s-45 137 -117 137s-116 -71 -116 -137s44 -138 116 -138zM175 604h-82c5 58 40 139 109 139
c24 0 52 -11 77 -21c26 -10 49 -22 65 -22c28 0 36 20 47 42h83c-11 -64 -46 -141 -121 -141c-21 0 -45 11 -69 22s-47 22 -66 22c-25 0 -37 -20 -43 -41z" />
    <glyph glyph-name="ccedilla" unicode="&#xe7;" horiz-adv-x="421" 
d="M384 476v-135c-30 30 -60 48 -103 48c-79 0 -124 -74 -124 -146c0 -77 49 -141 129 -141c38 0 73 19 98 47v-135c-38 -21 -78 -30 -121 -30c-145 0 -248 119 -248 260c0 146 107 263 255 263c39 0 80 -10 114 -31zM214 -20l92 -47l-116 -139l-74 38z" />
    <glyph glyph-name="eacute" unicode="&#xe9;" horiz-adv-x="501" 
d="M486 223h-323c0 -62 24 -132 97 -132c46 0 75 28 94 67l129 -21c-34 -98 -120 -153 -223 -153c-152 0 -245 108 -245 257s79 266 238 266c161 0 233 -119 233 -267v-17zM167 310h187c-7 50 -39 99 -93 99c-56 0 -87 -48 -94 -99zM300 774l102 -62l-151 -150l-71 44z" />
    <glyph glyph-name="ecircumflex" unicode="&#xea;" horiz-adv-x="501" 
d="M486 223h-323c0 -62 24 -132 97 -132c46 0 75 28 94 67l129 -21c-34 -98 -120 -153 -223 -153c-152 0 -245 108 -245 257s79 266 238 266c161 0 233 -119 233 -267v-17zM167 310h187c-7 50 -39 99 -93 99c-56 0 -87 -48 -94 -99zM81 620l170 154l170 -154l-60 -66
l-110 104l-110 -104z" />
    <glyph glyph-name="edieresis" unicode="&#xeb;" horiz-adv-x="501" 
d="M486 223h-323c0 -62 24 -132 97 -132c46 0 75 28 94 67l129 -21c-34 -98 -120 -153 -223 -153c-152 0 -245 108 -245 257s79 266 238 266c161 0 233 -119 233 -267v-17zM167 310h187c-7 50 -39 99 -93 99c-56 0 -87 -48 -94 -99zM146 762c44 0 80 -36 80 -80
s-36 -80 -80 -80s-80 36 -80 80s36 80 80 80zM357 762c44 0 80 -36 80 -80s-36 -80 -80 -80s-80 36 -80 80s36 80 80 80z" />
    <glyph glyph-name="egrave" unicode="&#xe8;" horiz-adv-x="501" 
d="M486 223h-323c0 -62 24 -132 97 -132c46 0 75 28 94 67l129 -21c-34 -98 -120 -153 -223 -153c-152 0 -245 108 -245 257s79 266 238 266c161 0 233 -119 233 -267v-17zM167 310h187c-7 50 -39 99 -93 99c-56 0 -87 -48 -94 -99zM100 712l102 62l120 -168l-71 -44z" />
    <glyph glyph-name="iacute" unicode="&#xed;" horiz-adv-x="253" 
d="M197 491v-491h-140v491h140zM160 774l102 -62l-151 -150l-71 44z" />
    <glyph glyph-name="icircumflex" unicode="&#xee;" horiz-adv-x="253" 
d="M197 491v-491h-140v491h140zM-43 620l170 154l170 -154l-60 -66l-110 104l-110 -104z" />
    <glyph glyph-name="idieresis" unicode="&#xef;" horiz-adv-x="253" 
d="M197 491v-491h-140v491h140zM22 762c44 0 80 -36 80 -80s-36 -80 -80 -80s-80 36 -80 80s36 80 80 80zM233 762c44 0 80 -36 80 -80s-36 -80 -80 -80s-80 36 -80 80s36 80 80 80z" />
    <glyph glyph-name="igrave" unicode="&#xec;" horiz-adv-x="253" 
d="M197 491v-491h-140v491h140zM-10 712l102 62l120 -168l-71 -44z" />
    <glyph glyph-name="ntilde" unicode="&#xf1;" horiz-adv-x="540" 
d="M190 491v-45h2c29 44 78 61 128 61c132 0 170 -93 170 -207v-300h-140v260c0 59 3 135 -76 135c-83 0 -84 -93 -84 -152v-243h-140v491h140zM162 604h-82c5 58 40 139 109 139c24 0 52 -11 77 -21c26 -10 49 -22 65 -22c28 0 36 20 47 42h83c-11 -64 -46 -141 -121 -141
c-21 0 -45 11 -69 22s-47 22 -66 22c-25 0 -37 -20 -43 -41z" />
    <glyph glyph-name="oacute" unicode="&#xf3;" horiz-adv-x="548" 
d="M274 507c153 0 258 -109 258 -262c0 -152 -104 -261 -258 -261s-258 109 -258 261c0 153 105 262 258 262zM274 383c-72 0 -116 -70 -116 -138c0 -66 44 -137 116 -137s116 71 116 137c0 68 -44 138 -116 138zM323 774l102 -62l-151 -150l-71 44z" />
    <glyph glyph-name="ocircumflex" unicode="&#xf4;" horiz-adv-x="548" 
d="M274 507c153 0 258 -109 258 -262c0 -152 -104 -261 -258 -261s-258 109 -258 261c0 153 105 262 258 262zM274 383c-72 0 -116 -70 -116 -138c0 -66 44 -137 116 -137s116 71 116 137c0 68 -44 138 -116 138zM104 620l170 154l170 -154l-60 -66l-110 104l-110 -104z" />
    <glyph glyph-name="odieresis" unicode="&#xf6;" horiz-adv-x="548" 
d="M274 507c153 0 258 -109 258 -262c0 -152 -104 -261 -258 -261s-258 109 -258 261c0 153 105 262 258 262zM274 383c-72 0 -116 -70 -116 -138c0 -66 44 -137 116 -137s116 71 116 137c0 68 -44 138 -116 138zM169 762c44 0 80 -36 80 -80s-36 -80 -80 -80s-80 36 -80 80
s36 80 80 80zM380 762c44 0 80 -36 80 -80s-36 -80 -80 -80s-80 36 -80 80s36 80 80 80z" />
    <glyph glyph-name="ograve" unicode="&#xf2;" horiz-adv-x="548" 
d="M274 507c153 0 258 -109 258 -262c0 -152 -104 -261 -258 -261s-258 109 -258 261c0 153 105 262 258 262zM274 383c-72 0 -116 -70 -116 -138c0 -66 44 -137 116 -137s116 71 116 137c0 68 -44 138 -116 138zM123 712l102 62l120 -168l-71 -44z" />
    <glyph glyph-name="otilde" unicode="&#xf5;" horiz-adv-x="548" 
d="M274 507c153 0 258 -109 258 -262c0 -152 -104 -261 -258 -261s-258 109 -258 261c0 153 105 262 258 262zM274 383c-72 0 -116 -70 -116 -138c0 -66 44 -137 116 -137s116 71 116 137c0 68 -44 138 -116 138zM166 604h-82c5 58 40 139 109 139c24 0 52 -11 77 -21
c26 -10 49 -22 65 -22c28 0 36 20 47 42h83c-11 -64 -46 -141 -121 -141c-21 0 -45 11 -69 22s-47 22 -66 22c-25 0 -37 -20 -43 -41z" />
    <glyph glyph-name="scaron" unicode="&#x161;" horiz-adv-x="410" 
d="M362 456l-60 -81c-20 19 -46 34 -74 34c-23 0 -46 -18 -46 -42c0 -36 51 -46 101 -68c51 -22 101 -56 101 -141c0 -109 -88 -174 -191 -174c-66 0 -130 30 -173 82l64 83c27 -30 63 -57 104 -57c31 0 56 21 56 53c0 43 -49 53 -98 74s-98 50 -98 129c0 92 64 159 156 159
c52 0 118 -16 158 -51zM26 709l60 65l118 -104l119 104l60 -65l-179 -155z" />
    <glyph glyph-name="uacute" unicode="&#xfa;" horiz-adv-x="535" 
d="M47 491h140v-266c0 -56 9 -123 80 -123s80 67 80 123v266h140v-289c0 -143 -74 -218 -220 -218s-220 75 -220 218v289zM317 774l102 -62l-151 -150l-71 44z" />
    <glyph glyph-name="ucircumflex" unicode="&#xfb;" horiz-adv-x="535" 
d="M47 491h140v-266c0 -56 9 -123 80 -123s80 67 80 123v266h140v-289c0 -143 -74 -218 -220 -218s-220 75 -220 218v289zM98 620l170 154l170 -154l-60 -66l-110 104l-110 -104z" />
    <glyph glyph-name="udieresis" unicode="&#xfc;" horiz-adv-x="535" 
d="M47 491h140v-266c0 -56 9 -123 80 -123s80 67 80 123v266h140v-289c0 -143 -74 -218 -220 -218s-220 75 -220 218v289zM163 762c44 0 80 -36 80 -80s-36 -80 -80 -80s-80 36 -80 80s36 80 80 80zM374 762c44 0 80 -36 80 -80s-36 -80 -80 -80s-80 36 -80 80s36 80 80 80z
" />
    <glyph glyph-name="ugrave" unicode="&#xf9;" horiz-adv-x="535" 
d="M47 491h140v-266c0 -56 9 -123 80 -123s80 67 80 123v266h140v-289c0 -143 -74 -218 -220 -218s-220 75 -220 218v289zM117 712l102 62l120 -168l-71 -44z" />
    <glyph glyph-name="yacute" unicode="&#xfd;" horiz-adv-x="520" 
d="M191 75l-209 416h159l117 -279l126 279h156l-357 -753h-154zM324 774l102 -62l-151 -150l-71 44z" />
    <glyph glyph-name="ydieresis" unicode="&#xff;" horiz-adv-x="520" 
d="M191 75l-209 416h159l117 -279l126 279h156l-357 -753h-154zM163 762c44 0 80 -36 80 -80s-36 -80 -80 -80s-80 36 -80 80s36 80 80 80zM374 762c44 0 80 -36 80 -80s-36 -80 -80 -80s-80 36 -80 80s36 80 80 80z" />
    <glyph glyph-name="zcaron" unicode="&#x17e;" horiz-adv-x="481" 
d="M232 118h233v-118h-466l251 373h-212v118h443zM70 709l60 65l118 -104l119 104l60 -65l-179 -155z" />
    <glyph glyph-name="Omega" unicode="&#x2126;" horiz-adv-x="729" 
d="M180 108v3c-64 65 -126 173 -126 313c0 194 127 353 314 353c200 0 305 -183 305 -345c0 -143 -63 -258 -127 -321v-3h142v-108h-270v79c63 44 124 148 124 323c-1 136 -60 263 -176 263c-110 0 -181 -113 -181 -268c0 -160 61 -276 124 -318v-79h-270v108h141z" />
    <glyph glyph-name="uni03BC" unicode="&#x3bc;" horiz-adv-x="535" 
d="M47 491h140v-266c0 -56 9 -123 80 -123s80 67 80 123v266h140v-289c0 -143 -74 -218 -220 -218c-39 0 -59 16 -80 30v-276h-140v753z" />
    <glyph glyph-name="pi" unicode="&#x3c0;" horiz-adv-x="625" 
d="M600 461h-74v-302c0 -80 6 -125 14 -159h-126c-12 23 -18 77 -18 154v307h-145c-6 -118 -31 -343 -69 -461h-125c36 130 63 340 66 461c-52 0 -80 -4 -102 -10l-15 88c26 21 81 36 169 36h435z" />
    <glyph glyph-name="Euro" unicode="&#x20ac;" 
d="M533 737v-130c-24 21 -68 42 -139 42c-88 0 -137 -44 -151 -136h257l-34 -102h-235c-1 -9 -1 -19 -1 -30c0 -12 0 -26 1 -35h212l-34 -102h-166c14 -95 65 -141 152 -141c69 0 113 20 138 43v-133c-20 -13 -74 -32 -159 -32c-144 0 -241 79 -268 263h-86l33 102h42
c-1 9 -2 21 -2 35c0 11 1 21 2 30h-75l33 102h51c26 163 111 260 270 260c77 0 136 -21 159 -36z" />
    <glyph glyph-name="afii61289" unicode="&#x2113;" horiz-adv-x="532" 
d="M461 187l52 -55c-53 -108 -131 -148 -213 -148c-129 0 -180 86 -188 183c0 5 0 9 -1 13c-17 -13 -36 -30 -55 -45l-32 71c32 27 60 49 86 76v280c0 192 86 274 186 274c99 0 143 -85 143 -192c0 -129 -79 -253 -203 -379v-50c1 -85 41 -126 94 -126c56 0 102 50 131 98z
M236 559v-172c72 87 124 182 124 262c0 57 -16 91 -58 91c-32 0 -66 -40 -66 -181z" />
    <glyph glyph-name="estimated" unicode="&#x212e;" horiz-adv-x="957" 
d="M919 366h-714c-3 0 -6 -1 -6 -5v-216c0 -9 4 -18 10 -25c69 -71 164 -117 270 -117c114 0 215 52 284 132h63c-78 -93 -206 -154 -348 -154c-244 0 -441 177 -441 395c0 220 197 397 441 397s441 -177 441 -397v-10zM757 394v217c0 10 -3 19 -10 26
c-70 68 -164 113 -268 113c-105 0 -200 -46 -269 -116c-7 -7 -11 -17 -11 -27v-213c0 -2 3 -7 6 -7h547c4 0 5 5 5 7z" />
    <glyph glyph-name="partialdiff" unicode="&#x2202;" horiz-adv-x="598" 
d="M109 696l-36 100c33 26 93 62 188 62c150 0 286 -135 286 -416c0 -276 -106 -457 -291 -457c-145 0 -215 137 -215 258c0 178 103 288 226 288c83 0 135 -57 151 -84h1c1 9 1 28 1 37c0 139 -70 264 -175 264c-63 0 -108 -28 -136 -52zM268 96h1c79 0 128 126 138 238
c-10 35 -51 90 -115 90c-72 0 -123 -89 -123 -186c0 -80 39 -142 99 -142z" />
    <glyph glyph-name="product" unicode="&#x220f;" horiz-adv-x="752" 
d="M724 645h-105v-751h-129v751h-229v-751h-129v751h-105v120h697v-120z" />
    <glyph glyph-name="summation" unicode="&#x2211;" horiz-adv-x="580" 
d="M560 -106h-535v87l254 350l-245 341v93h509v-111h-336v-4l217 -296l-242 -333v-3h378v-124z" />
    <glyph glyph-name="uni2219" unicode="&#x2219;" horiz-adv-x="289" 
d="M145 345c49 0 89 -39 89 -88s-40 -90 -89 -90s-89 41 -89 90s40 88 89 88z" />
    <glyph glyph-name="radical" unicode="&#x221a;" horiz-adv-x="620" 
d="M626 919l-233 -1072h-105l-155 482l-77 -31l-22 75l178 71l107 -346c8 -35 16 -72 21 -96l1 -2c4 24 9 65 17 104l178 815h90z" />
    <glyph glyph-name="infinity" unicode="&#x221e;" horiz-adv-x="828" 
d="M777 317v-1c0 -116 -83 -184 -171 -184c-62 0 -119 28 -190 121c-55 -68 -112 -121 -198 -121c-88 0 -167 73 -167 179c0 107 76 182 176 182c79 0 137 -48 192 -119c45 51 99 119 194 119c93 -1 164 -70 164 -176zM228 204h1c60 0 105 54 147 103
c-45 59 -83 115 -152 115c-62 0 -99 -49 -99 -112c0 -58 44 -106 103 -106zM605 422h-1c-65 0 -114 -69 -148 -108c65 -80 99 -110 153 -110c60 0 94 58 94 106c0 66 -40 112 -98 112z" />
    <glyph glyph-name="integral" unicode="&#x222b;" horiz-adv-x="419" 
d="M394 933l-14 -92c-10 5 -23 10 -37 10c-20 0 -39 -8 -52 -28c-23 -30 -29 -92 -29 -185c0 -178 15 -334 15 -529c0 -106 -16 -177 -39 -220c-28 -56 -83 -77 -135 -77c-33 0 -65 9 -79 17l16 95c10 -4 25 -11 45 -11c17 0 35 6 46 22c18 26 29 73 29 172
c0 198 -16 357 -16 543c0 127 18 197 63 246c30 33 77 49 122 49c27 0 52 -6 65 -12z" />
    <glyph glyph-name="approxequal" unicode="&#x2248;" horiz-adv-x="577" 
d="M488 489l46 -42c-31 -64 -80 -111 -141 -111c-42 0 -70 13 -117 43c-32 20 -57 36 -91 36c-47 0 -72 -39 -97 -77l-47 41c30 63 86 110 151 110c51 0 85 -24 111 -39c38 -23 60 -39 91 -39c41 0 66 31 94 78zM488 291l46 -42c-30 -63 -79 -110 -142 -110
c-41 0 -70 14 -116 42c-33 21 -58 37 -91 37c-47 0 -72 -39 -97 -78l-47 42c30 63 86 110 151 110c51 0 85 -25 111 -39c34 -20 58 -39 91 -39c42 0 66 31 94 77z" />
    <glyph glyph-name="notequal" unicode="&#x2260;" horiz-adv-x="577" 
d="M423 555l-41 -95h144v-77h-172l-63 -145h235v-77h-263l-52 -120l-60 24l42 96h-142v77h171l62 145h-233v77h261l51 118z" />
    <glyph glyph-name="lessequal" unicode="&#x2264;" horiz-adv-x="577" 
d="M523 108l-466 240v83l465 240v-90l-391 -190v-2l392 -190v-91zM527 -10h-475v78h475v-78z" />
    <glyph glyph-name="greaterequal" unicode="&#x2265;" horiz-adv-x="577" 
d="M59 671l466 -240v-83l-466 -240v91l390 190v2l-390 190v90zM526 -10h-473v78h473v-78z" />
    <glyph glyph-name="lozenge" unicode="&#x25ca;" horiz-adv-x="620" 
d="M566 382l-207 -434h-105l-200 434l206 435h105zM451 379l-119 261c-7 21 -16 48 -19 68h-4c-5 -21 -12 -46 -20 -68l-120 -255l120 -265c7 -23 14 -50 17 -65h5c4 17 13 51 19 63z" />
    <glyph glyph-name="uni00A0" unicode="&#xa0;" horiz-adv-x="289" 
 />
    <glyph glyph-name="uni00AD" unicode="&#xad;" horiz-adv-x="330" 
d="M43 378h244v-115h-244v115z" />
    <glyph glyph-name="uni02C9" unicode="&#x2c9;" horiz-adv-x="400" 
d="M9 754h382v-88h-382v88z" />
    <glyph glyph-name="uni03A9" unicode="&#x3a9;" horiz-adv-x="729" 
d="M180 108v3c-64 65 -126 173 -126 313c0 194 127 353 314 353c200 0 305 -183 305 -345c0 -143 -63 -258 -127 -321v-3h142v-108h-270v79c63 44 124 148 124 323c-1 136 -60 263 -176 263c-110 0 -181 -113 -181 -268c0 -160 61 -276 124 -318v-79h-270v108h141z" />
    <glyph glyph-name="uni2215" unicode="&#x2215;" horiz-adv-x="179" 
d="M257 780l68 -34l-404 -777l-69 35z" />
    <glyph glyph-name="a.superior" horiz-adv-x="339" 
d="M332 764v-294h-89v27h-2c-19 -24 -53 -37 -86 -37c-94 0 -147 79 -147 158c0 78 54 156 146 156c33 0 67 -13 89 -37v27h89zM176 534c47 0 76 44 76 83c0 40 -29 83 -76 83s-76 -43 -76 -83c0 -39 29 -83 76 -83z" />
    <glyph glyph-name="o.superior" horiz-adv-x="339" 
d="M170 774c99 0 168 -66 168 -157c0 -92 -68 -157 -168 -157s-168 65 -168 157c0 91 69 157 168 157zM170 700c-47 0 -75 -42 -75 -82s28 -84 75 -84s75 44 75 84s-28 82 -75 82z" />
    <glyph glyph-name="one.superior" horiz-adv-x="346" 
d="M157 678h-64v76h160v-452h-96v376z" />
    <glyph glyph-name="two.superior" horiz-adv-x="346" 
d="M178 379h160v-77h-330l125 145c34 40 106 118 106 169c0 42 -22 74 -63 74c-43 0 -62 -44 -60 -78h-101c6 87 60 154 161 154c89 0 159 -63 159 -145c0 -67 -40 -117 -85 -165z" />
    <glyph glyph-name="three.superior" horiz-adv-x="346" 
d="M120 644h-91c8 78 62 130 150 130c84 0 141 -49 141 -127c0 -35 -14 -74 -47 -95c45 -18 63 -69 63 -110c0 -89 -69 -144 -163 -144c-90 0 -157 62 -162 143h96c2 -36 28 -66 70 -66c43 0 66 37 66 72c0 36 -26 75 -69 72l-18 -1v63h11c40 0 62 25 62 63
c0 30 -20 57 -56 57c-34 0 -52 -29 -53 -57z" />
    <glyph glyph-name="uni2206" unicode="&#x2206;" horiz-adv-x="681" 
d="M29 0v78l238 704h154l231 -701v-81h-623zM161 107h353l-114 325c-16 60 -48 151 -59 199h-3c-9 -40 -39 -121 -55 -183z" />
    <glyph glyph-name="uni2010" unicode="&#x2010;" horiz-adv-x="330" 
d="M43 378h244v-115h-244v115z" />
    </font>
</defs>
</svg>
